<?xml version="1.0" standalone="no"?>
<!DOCTYPE svg PUBLIC "-//W3C//DTD SVG 1.1//EN" "http://www.w3.org/Graphics/SVG/1.1/DTD/svg11.dtd" >
<svg xmlns="http://www.w3.org/2000/svg">
<metadata>
This is a custom SVG font generated by IcoMoon.
0
</metadata>
<defs>
<font id="FontAwesome" horiz-adv-x="2048" >
<font-face units-per-em="2048" ascent="1536" descent="-512" />
<missing-glyph horiz-adv-x="2048" />
<glyph unicode="&#xf000;" d="M 6.00,1489.00q 20.00,47.00 70.00,47.00l 1382.00,0.00 q 51.00,0.00 72.00-47.00q 20.00-47.00 -17.00-84.00l-610.00-610.00l0.00-641.00 l 248.00,0.00 q 33.00,0.00 55.50-22.50t 22.50-53.50q0.00-33.00 -22.50-55.50t-55.50-22.50l-768.00,0.00 q-31.00,0.00 -53.50,22.50t-22.50,55.50q0.00,31.00 22.50,53.50t 53.50,22.50l 250.00,0.00 l0.00,641.00 l-610.00,610.00q-37.00,37.00 -17.00,84.00z" horiz-adv-x="1536" />
<glyph unicode="&#xf001;" d="M0.00,213.00q0.00,57.00 27.50,103.00t 72.50,77.00t 98.50,47.50t 106.50,16.50q 25.00,0.00 50.50-4.00t 50.50-11.00l0.00,779.00 q0.00,27.00 16.00,48.00t 43.00,29.00q 23.00,6.00 99.50,29.00t 178.00,52.50t 215.00,62.50t 211.00,60.50t 164.00,46.00t 74.50,18.50q 35.00,0.00 58.50-23.50t 23.50-58.50l0.00-1028.00 q0.00-59.00 -27.50-104.50t-73.00-76.00t-99.50-47.00t-105.00-16.50t-105.50,16.50t-98.50,47.00 t-71.50,75.50t-27.50,105.00q0.00,57.00 27.50,103.00t 71.50,77.00t 98.50,47.00t 105.50,16.00q 27.00,0.00 52.50-4.00t 49.50-10.00l0.00,537.00 l-678.00-195.00l0.00-815.00 q0.00-59.00 -27.50-104.50t-71.50-76.00t-98.50-47.00t-105.50-16.50q-53.00,0.00 -106.50,16.50t-98.50,47.00t-72.50,76.00t-27.50,104.50z" horiz-adv-x="1488" />
<glyph unicode="&#xf002;" d="M0.00,901.00q0.00,137.00 52.00,258.00t 143.50,212.00t 212.00,143.50t 258.50,52.50q 137.00,0.00 257.50-52.50t 212.00-143.50t 143.50-212.00t 52.00-258.00q0.00-98.00 -28.50-191.50t-81.50-174.50l 358.00-359.00q 18.00-18.00 18.00-47.00q0.00-16.00 -18.00-43.00t-45.00-53.50t-53.50-45.00t-42.50-18.50q-29.00,0.00 -47.00,19.00l-359.00,358.00q-82.00-53.00 -175.00-81.50t-191.00-28.50 q-137.00,0.00 -258.00,52.00t-212.50,143.00t-143.50,212.00t-52.00,258.00zM 266.00,901.00q0.00-84.00 32.00-156.50t 86.00-126.00t 127.00-85.00t 155.00-31.50t 154.50,31.50t 126.50,85.00t 86.00,126.00t 32.00,156.50q0.00,82.00 -32.00,154.50t-86.00,127.00t-126.50,86.00t-154.50,31.50t-155.00-31.50t-127.00-86.00t-86.00-127.00t-32.00-154.50zM 414.00,901.00q0.00,51.00 19.50,97.00t 54.00,81.00t 80.00,54.50 t 98.50,19.50q 20.00,0.00 34.50-14.50t 14.50-36.50q0.00-20.00 -14.50-34.50t-34.50-14.50q-63.00,0.00 -107.50-44.00t-44.50-108.00q0.00-20.00 -14.50-34.50t-34.50-14.50q-23.00,0.00 -37.00,14.50t-14.00,34.50z" horiz-adv-x="1597" />
<glyph unicode="&#xf003;" d="M0.00,115.00l0.00,1306.00 q0.00,47.00 34.00,81.00t 81.00,34.00l 1614.00,0.00 q 47.00,0.00 80.50-34.00t 33.50-81.00l0.00-1306.00 q0.00-47.00 -33.50-81.00t-80.50-34.00l-1614.00,0.00 q-47.00,0.00 -81.00,34.00t-34.00,81.00zM 154.00,154.00l 1536.00,0.00 l0.00,852.00 q-31.00-31.00 -58.00-50.00q-106.00-80.00 -212.50-159.50t-211.50-163.50q-61.00-49.00 -131.50-94.00t-156.50-45.00q-82.00,0.00 -153.00,45.00t-132.00,94.00 q-104.00,84.00 -211.00,164.00t-213.00,159.00q-27.00,18.00 -57.00,50.00l0.00-852.00 zM 154.00,1317.00q0.00-31.00 14.00-65.50t 35.50-66.50t 47.00-59.50t 50.50-46.50q 100.00-76.00 199.50-150.50t 199.50-152.50q 20.00-16.00 48.00-37.50t 58.00-42.00t 59.50-35.00t 54.50-14.50l 2.00,0.00 l 2.00,0.00 q 25.00,0.00 54.50,14.50t 59.00,35.00t 57.00,42.00t 48.50,37.50q 100.00,78.00 199.50,153.00t 199.50,150.00 q 25.00,18.00 50.50,46.00t 47.00,60.00t 36.00,66.50t 14.50,65.50l0.00,65.00 l-1536.00,0.00 l0.00-65.00 z" horiz-adv-x="1843" />
<glyph unicode="&#xf004;" d="M0.00,1073.00q0.00,113.00 34.00,205.00t 97.50,155.50t 153.50,98.50t 202.00,35.00q 59.00,0.00 117.00-18.50t 110.00-48.50t 99.00-68.50t 88.00-77.50q 39.00,39.00 87.00,77.50t 100.50,68.50t 109.00,48.50t 115.50,18.50q 113.00,0.00 204.00-35.00t 154.50-98.50t 97.00-155.50t 33.50-205.00q0.00-66.00 -18.50-130.00t-51.00-124.50t-74.50-115.00t-87.00-99.50l-615.00-612.00 q-23.00-23.00 -55.00-23.00q-31.00,0.00 -57.00,23.00l-615.00,614.00q-45.00,45.00 -87.00,99.50t-73.50,114.00t-50.00,124.00t-18.50,129.50z" horiz-adv-x="1802" />
<glyph unicode="&#xf005;" d="M 1.00,959.50q 9.00,27.50 54.00,33.50l 506.00,74.00l 227.00,459.00q 20.00,41.00 49.00,41.00t 50.00-41.00l 227.00-459.00l 506.00-74.00q 45.00-6.00 54.00-33.50t-23.00-60.50l-367.00-356.00l 86.00-504.00q 8.00-45.00 -15.50-62.50t-64.50,5.50l-452.00,237.00l-453.00-237.00q-41.00-23.00 -64.50-5.50t-15.50,62.50l 86.00,504.00l-364.00,356.00q-35.00,33.00 -26.00,60.50z" horiz-adv-x="1675" />
<glyph unicode="&#xf006;" d="M0.00,948.00q0.00,23.00 18.50,32.00t 36.50,13.00l 506.00,74.00l 227.00,459.00q 6.00,14.00 20.00,27.50t 30.00,13.50q 18.00,0.00 30.50-13.50t 18.50-27.50l 227.00-459.00l 506.00-74.00q 18.00-4.00 36.50-13.00t 18.50-32.00q0.00-14.00 -7.00-26.50t-17.00-22.50l-367.00-356.00l 86.00-504.00q0.00-4.00 1.00-9.00t 1.00-12.00q0.00-20.00 -9.00-34.50t-32.00-14.50t-41.00,13.00l-452.00,237.00l-453.00-237.00 q-18.00-12.00 -39.00-13.00q-23.00,0.00 -33.00,14.50t-10.00,34.50q0.00,6.00 1.00,11.50t 1.00,9.50l 86.00,504.00l-364.00,356.00q-10.00,10.00 -18.50,22.50t-8.50,26.50zM 289.00,866.00l 274.00-268.00l-65.00-377.00l 340.00,178.00l 340.00-178.00l-66.00,377.00l 274.00,268.00l-378.00,56.00l-170.00,344.00l-170.00-344.00z" horiz-adv-x="1675" />
<glyph unicode="&#xf007;" d="M0.00,57.00l0.00,387.00 q0.00,37.00 18.50,82.00t 48.00,86.00t 65.50,74.00t 71.00,43.00q 18.00,6.00 66.00,13.50t 102.50,14.50t 104.50,13.00t 77.00,10.00q-92.00,59.00 -144.50,153.50t-52.50,205.50q0.00,88.00 34.00,165.50t 91.50,136.00t 135.00,92.50t 165.50,34.00t 166.00-34.00t 136.50-92.50t 92.00-136.00t 33.50-165.50q0.00-109.00 -52.00-204.50t-144.00-154.50q 27.00-4.00 77.00-10.00t 104.00-13.00 t 101.00-14.50t 68.00-13.50q 35.00-10.00 70.50-42.00t 65.50-74.00t 48.50-87.00t 18.50-82.00l0.00-387.00 q-10.00-4.00 -22.50-14.00t-27.00-19.50t-27.50-16.50t-22.00-7.00l-1370.00,0.00 q-35.00,0.00 -53.00,21.50t-45.00,35.50z" horiz-adv-x="1566" />
<glyph unicode="&#xf008;" d="M0.00,115.00l0.00,1306.00 q0.00,47.00 34.00,81.00t 81.00,34.00l 1614.00,0.00 q 47.00,0.00 80.50-34.00t 33.50-81.00l0.00-1306.00 q0.00-47.00 -33.50-81.00t-80.50-34.00l-1614.00,0.00 q-47.00,0.00 -81.00,34.00t-34.00,81.00zM 115.00,154.00q0.00-16.00 11.00-27.50t 28.00-11.50l 153.00,0.00 q 16.00,0.00 27.50,11.00t 11.50,28.00l0.00,153.00 q0.00,16.00 -11.00,27.50t-28.00,11.50l-153.00,0.00 q-16.00,0.00 -27.50-11.00t-11.50-28.00l0.00-153.00 zM 115.00,512.00 q0.00-16.00 11.00-27.50t 28.00-11.50l 153.00,0.00 q 16.00,0.00 27.50,11.50t 11.50,27.50l0.00,154.00 q0.00,16.00 -11.00,27.50t-28.00,11.50l-153.00,0.00 q-16.00,0.00 -27.50-11.50t-11.50-27.50l0.00-154.00 zM 115.00,870.00q0.00-16.00 11.00-27.50t 28.00-11.50l 153.00,0.00 q 16.00,0.00 27.50,11.50t 11.50,27.50l0.00,154.00 q0.00,16.00 -11.00,27.50t-28.00,11.50l-153.00,0.00 q-16.00,0.00 -27.50-11.50t-11.50-27.50l0.00-154.00 z M 115.00,1229.00q0.00-16.00 11.00-27.50t 28.00-11.50l 153.00,0.00 q 16.00,0.00 27.50,11.00t 11.50,28.00l0.00,153.00 q0.00,16.00 -11.00,27.50t-28.00,11.50l-153.00,0.00 q-16.00,0.00 -27.50-11.00t-11.50-28.00l0.00-153.00 zM 461.00,154.00q0.00-16.00 11.00-27.50t 28.00-11.50l 843.00,0.00 q 16.00,0.00 27.50,11.00t 11.50,28.00l0.00,512.00 q0.00,16.00 -11.00,27.50t-28.00,11.50l-843.00,0.00 q-16.00,0.00 -27.50-11.50t-11.50-27.50l0.00-512.00 z M 461.00,870.00q0.00-16.00 11.00-27.50t 28.00-11.50l 843.00,0.00 q 16.00,0.00 27.50,11.50t 11.50,27.50l0.00,512.00 q0.00,16.00 -11.00,27.50t-28.00,11.50l-843.00,0.00 q-16.00,0.00 -27.50-11.00t-11.50-28.00l0.00-512.00 zM 1497.00,154.00q0.00-16.00 11.50-27.50t 27.50-11.50l 154.00,0.00 q 16.00,0.00 27.50,11.00t 11.50,28.00l0.00,153.00 q0.00,16.00 -11.50,27.50t-27.50,11.50l-154.00,0.00 q-16.00,0.00 -27.50-11.00t-11.50-28.00l0.00-153.00  zM 1497.00,512.00q0.00-16.00 11.50-27.50t 27.50-11.50l 154.00,0.00 q 16.00,0.00 27.50,11.50t 11.50,27.50l0.00,154.00 q0.00,16.00 -11.50,27.50t-27.50,11.50l-154.00,0.00 q-16.00,0.00 -27.50-11.50t-11.50-27.50l0.00-154.00 zM 1497.00,870.00q0.00-16.00 11.50-27.50t 27.50-11.50l 154.00,0.00 q 16.00,0.00 27.50,11.50t 11.50,27.50l0.00,154.00 q0.00,16.00 -11.50,27.50t-27.50,11.50l-154.00,0.00  q-16.00,0.00 -27.50-11.50t-11.50-27.50l0.00-154.00 zM 1497.00,1229.00q0.00-16.00 11.50-27.50t 27.50-11.50l 154.00,0.00 q 16.00,0.00 27.50,11.00t 11.50,28.00l0.00,153.00 q0.00,16.00 -11.50,27.50t-27.50,11.50l-154.00,0.00 q-16.00,0.00 -27.50-11.00t-11.50-28.00l0.00-153.00 z" horiz-adv-x="1843" />
<glyph unicode="&#xf009;" d="M0.00,78.00l0.00,536.00 q0.00,33.00 22.50,55.50t 55.50,22.50l 690.00,0.00 q 33.00,0.00 55.50-22.50t 22.50-55.50l0.00-536.00 q0.00-33.00 -22.50-55.50t-55.50-22.50l-690.00,0.00 q-33.00,0.00 -55.50,22.50t-22.50,55.50zM0.00,922.00l0.00,538.00 q0.00,31.00 22.50,53.50t 55.50,22.50l 690.00,0.00 q 33.00,0.00 55.50-22.50t 22.50-53.50l0.00-538.00 q0.00-33.00 -22.50-54.50t-55.50-21.50l-690.00,0.00  q-33.00,0.00 -55.50,21.50t-22.50,54.50zM 999.00,78.00l0.00,536.00 q0.00,33.00 21.50,55.50t 54.50,22.50l 692.00,0.00 q 31.00,0.00 53.50-22.50t 22.50-55.50l0.00-536.00 q0.00-33.00 -22.50-55.50t-53.50-22.50l-692.00,0.00 q-33.00,0.00 -54.50,22.50t-21.50,55.50zM 999.00,922.00l0.00,538.00 q0.00,31.00 21.50,53.50t 54.50,22.50l 692.00,0.00 q 31.00,0.00 53.50-22.50t 22.50-53.50l0.00-538.00  q0.00-33.00 -22.50-54.50t-53.50-21.50l-692.00,0.00 q-33.00,0.00 -54.50,21.50t-21.50,54.50z" horiz-adv-x="1843" />
<glyph unicode="&#xf00a;" d="M0.00,78.00l0.00,270.00 q0.00,33.00 22.50,54.50t 55.50,21.50l 358.00,0.00 q 31.00,0.00 53.50-21.50t 22.50-54.50l0.00-270.00 q0.00-33.00 -22.50-55.50t-53.50-22.50l-358.00,0.00 q-33.00,0.00 -55.50,22.50t-22.50,55.50zM0.00,655.00l0.00,226.00 q0.00,33.00 22.50,54.00t 55.50,21.00l 358.00,0.00 q 31.00,0.00 53.50-21.50t 22.50-53.50l0.00-226.00 q0.00-33.00 -22.50-55.00t-53.50-22.00l-358.00,0.00 q-33.00,0.00 -55.50,22.50 t-22.50,54.50zM0.00,1188.00l0.00,272.00 q0.00,31.00 22.50,53.50t 55.50,22.50l 358.00,0.00 q 31.00,0.00 53.50-22.50t 22.50-53.50l0.00-272.00 q0.00-33.00 -22.50-55.50t-53.50-22.50l-358.00,0.00 q-33.00,0.00 -55.50,22.50t-22.50,55.50zM 666.00,78.00l0.00,270.00 q0.00,33.00 22.50,54.50t 54.50,21.50l 359.00,0.00 q 31.00,0.00 53.50-21.50t 22.50-54.50l0.00-270.00 q0.00-33.00 -22.50-55.50t-53.50-22.50 l-359.00,0.00 q-33.00,0.00 -55.00,22.50t-22.00,55.50zM 666.00,655.00l0.00,226.00 q0.00,33.00 22.50,54.00t 54.50,21.00l 359.00,0.00 q 31.00,0.00 53.50-21.50t 22.50-53.50l0.00-226.00 q0.00-33.00 -22.50-55.00t-53.50-22.00l-359.00,0.00 q-33.00,0.00 -55.00,22.50t-22.00,54.50zM 666.00,1188.00l0.00,272.00 q0.00,31.00 22.50,53.50t 54.50,22.50l 359.00,0.00 q 31.00,0.00 53.50-22.50t 22.50-53.50l0.00-272.00 q0.00-33.00 -22.50-55.50 t-53.50-22.50l-359.00,0.00 q-33.00,0.00 -55.00,22.50t-22.00,55.50zM 1331.00,78.00l0.00,270.00 q0.00,33.00 22.50,54.50t 55.50,21.50l 358.00,0.00 q 31.00,0.00 53.50-21.50t 22.50-54.50l0.00-270.00 q0.00-33.00 -22.50-55.50t-53.50-22.50l-358.00,0.00 q-33.00,0.00 -55.50,22.50t-22.50,55.50zM 1331.00,655.00l0.00,226.00 q0.00,33.00 22.50,54.00t 55.50,21.00l 358.00,0.00 q 31.00,0.00 53.50-21.50t 22.50-53.50l0.00-226.00  q0.00-33.00 -22.50-55.00t-53.50-22.00l-358.00,0.00 q-33.00,0.00 -55.50,22.50t-22.50,54.50zM 1331.00,1188.00l0.00,272.00 q0.00,31.00 22.50,53.50t 55.50,22.50l 358.00,0.00 q 31.00,0.00 53.50-22.50t 22.50-53.50l0.00-272.00 q0.00-33.00 -22.50-55.50t-53.50-22.50l-358.00,0.00 q-33.00,0.00 -55.50,22.50t-22.50,55.50z" horiz-adv-x="1843" />
<glyph unicode="&#xf00b;" d="M0.00,78.00l0.00,270.00 q0.00,33.00 22.50,54.50t 55.50,21.50l 297.00,0.00 q 31.00,0.00 53.50-21.50t 22.50-54.50l0.00-270.00 q0.00-33.00 -22.50-55.50t-53.50-22.50l-297.00,0.00 q-33.00,0.00 -55.50,22.50t-22.50,55.50zM0.00,655.00l0.00,226.00 q0.00,33.00 22.50,54.00t 55.50,21.00l 297.00,0.00 q 31.00,0.00 53.50-21.50t 22.50-53.50l0.00-226.00 q0.00-33.00 -22.50-55.00t-53.50-22.00l-297.00,0.00 q-33.00,0.00 -55.50,22.50 t-22.50,54.50zM0.00,1188.00l0.00,272.00 q0.00,31.00 22.50,53.50t 55.50,22.50l 297.00,0.00 q 31.00,0.00 53.50-22.50t 22.50-53.50l0.00-272.00 q0.00-33.00 -22.50-55.50t-53.50-22.50l-297.00,0.00 q-33.00,0.00 -55.50,22.50t-22.50,55.50zM 604.00,78.00l0.00,270.00 q0.00,33.00 22.50,54.50t 55.50,21.50l 1085.00,0.00 q 31.00,0.00 53.50-21.50t 22.50-54.50l0.00-270.00 q0.00-33.00 -22.50-55.50t-53.50-22.50 l-1085.00,0.00 q-33.00,0.00 -55.50,22.50t-22.50,55.50zM 604.00,655.00l0.00,226.00 q0.00,33.00 22.50,54.00t 55.50,21.00l 1085.00,0.00 q 31.00,0.00 53.50-21.50t 22.50-53.50l0.00-226.00 q0.00-33.00 -22.50-55.00t-53.50-22.00l-1085.00,0.00 q-33.00,0.00 -55.50,22.50t-22.50,54.50zM 604.00,1188.00l0.00,272.00 q0.00,31.00 22.50,53.50t 55.50,22.50l 1085.00,0.00 q 31.00,0.00 53.50-22.50t 22.50-53.50l0.00-272.00  q0.00-33.00 -22.50-55.50t-53.50-22.50l-1085.00,0.00 q-33.00,0.00 -55.50,22.50t-22.50,55.50z" horiz-adv-x="1843" />
<glyph unicode="&#xf00c;" d="M0.00,732.50q0.00,33.50 23.00,55.50l 174.00,175.00q 23.00,23.00 56.50,22.50t 55.50-22.50l 365.00-365.00q 23.00-23.00 56.50-23.00t 55.50,23.00l 746.00,745.00q 23.00,23.00 56.50,23.00t 56.50-23.00l 174.00-174.00q 23.00-23.00 22.50-56.50t-22.50-55.50l-910.00-910.00q-23.00-23.00 -62.50-39.00t-72.50-16.00l-88.00,0.00 q-35.00,0.00 -75.00,16.50t-62.00,38.50l-526.00,529.00 q-23.00,23.00 -23.00,56.50z" horiz-adv-x="1843" />
<glyph unicode="&#xf00d;" d="M0.00,192.50q0.00,38.50 29.00,67.50l 508.00,510.00l-508.00,500.00q-29.00,29.00 -29.00,67.50t 29.00,67.50l 100.00,100.00q 29.00,29.00 68.00,29.00t 67.00-29.00l 504.00-504.00l 504.00,504.00q 29.00,29.00 67.50,29.00t 67.50-29.00l 100.00-100.00q 29.00-29.00 29.00-68.00t-29.00-67.00l-508.00-510.00l 508.00-500.00q 29.00-29.00 29.00-66.50t-29.00-66.50l-100.00-102.00q-29.00-29.00 -68.00-29.00t-67.00,29.00l-504.00,505.00 l-506.00-505.00q-29.00-29.00 -66.50-29.00t-66.50,29.00l-100.00,100.00q-29.00,29.00 -29.00,67.50z" horiz-adv-x="1536" />
<glyph unicode="&#xf00e;" d="M0.00,901.00q0.00,137.00 52.00,258.00t 143.50,212.00t 212.00,143.50t 258.50,52.50q 137.00,0.00 259.00-52.50t 212.00-143.50t 142.00-212.00t 52.00-258.00q0.00-102.00 -28.50-195.50t-81.50-170.50l 358.00-359.00q 18.00-18.00 18.00-46.00t-18.00-48.00l-94.00-94.00q-20.00-18.00 -48.00-18.50t-46.00,18.50l-359.00,358.00q-78.00-53.00 -171.00-81.50t-195.00-28.50q-137.00,0.00 -258.00,52.00 t-212.50,142.00t-143.50,211.00t-52.00,260.00zM 266.00,901.00q0.00-84.00 32.00-156.50t 86.00-126.00t 127.00-85.00t 155.00-31.50t 155.50,31.50t 126.50,85.00t 85.00,126.00t 32.00,156.50q0.00,82.00 -32.00,154.50t-85.00,127.00t-126.50,86.00t-155.50,31.50t-155.00-31.50t-127.00-86.00t-86.00-127.00t-32.00-154.50zM 399.00,868.00l0.00,66.00 q0.00,33.00 33.00,33.00l 168.00,0.00 l0.00,168.00 q0.00,33.00 33.00,32.00l 65.00,0.00  q 14.00,0.00 24.50-9.00t 10.50-23.00l0.00-168.00 l 166.00,0.00 q 33.00,0.00 33.00-33.00l0.00-66.00 q0.00-14.00 -9.50-24.00t-23.50-10.00l-166.00,0.00 l0.00-166.00 q0.00-14.00 -10.00-23.50t-25.00-9.50l-65.00,0.00 q-33.00,0.00 -33.00,33.00l0.00,166.00 l-168.00,0.00 q-14.00,0.00 -23.50,10.00t-9.50,24.00z" horiz-adv-x="1597" />
<glyph unicode="&#xf010;" d="M0.00,901.00q0.00,137.00 52.00,258.00t 143.50,212.00t 212.00,143.50t 258.50,52.50q 137.00,0.00 259.00-52.50t 212.00-143.50t 142.00-212.00t 52.00-258.00q0.00-102.00 -28.50-195.50t-81.50-170.50l 358.00-359.00q 18.00-18.00 18.00-46.00t-18.00-48.00l-94.00-94.00q-20.00-18.00 -48.00-18.50t-46.00,18.50l-359.00,358.00q-78.00-53.00 -171.00-81.50t-195.00-28.50q-137.00,0.00 -258.00,52.00 t-212.50,142.00t-143.50,211.00t-52.00,260.00zM 266.00,901.00q0.00-84.00 32.00-156.50t 86.00-126.00t 127.00-85.00t 155.00-31.50t 155.50,31.50t 126.50,85.00t 85.00,126.00t 32.00,156.50q0.00,82.00 -32.00,154.50t-85.00,127.00t-126.50,86.00t-155.50,31.50t-155.00-31.50t-127.00-86.00t-86.00-127.00t-32.00-154.50zM 399.00,868.00l0.00,66.00 q0.00,33.00 33.00,33.00l 467.00,0.00 q 33.00,0.00 33.00-33.00l0.00-66.00  q0.00-14.00 -9.50-24.00t-23.50-10.00l-467.00,0.00 q-14.00,0.00 -23.50,10.00t-9.50,24.00z" horiz-adv-x="1597" />
<glyph unicode="&#xf011;" d="M0.00,713.00q0.00,186.00 86.00,349.00t 240.00,267.00q 12.00,10.00 28.00,6.00q 18.00-4.00 25.00-16.00l 90.00-131.00q 10.00-12.00 6.00-27.50t-16.00-25.50q-106.00-72.00 -164.50-182.50t-58.50-239.50q0.00-104.00 39.50-197.50t 108.50-162.00t 162.00-108.50t 197.00-40.00t 197.50,40.00t 163.50,108.50t 109.50,161.50t 39.50,198.00q0.00,129.00 -59.00,239.50t-164.00,182.50 q-14.00,10.00 -16.00,24.00q-4.00,16.00 6.00,29.00l 88.00,131.00q 10.00,12.00 25.50,15.00t 29.50-5.00q 154.00-104.00 240.00-267.00t 86.00-349.00q0.00-154.00 -58.50-289.00t-160.00-236.50t-237.50-160.00t-290.00-58.50t-289.00,58.50t-236.00,160.00t-159.50,236.50t-58.50,289.00zM 627.00,793.00l0.00,704.00 q0.00,16.00 11.00,27.50t 28.00,11.50l 157.00,0.00 q 16.00,0.00 27.50-11.50t 11.50-27.50l0.00-704.00  q0.00-16.00 -11.00-27.50t-28.00-11.50l-157.00,0.00 q-16.00,0.00 -27.50,11.00t-11.50,28.00z" horiz-adv-x="1488" />
<glyph unicode="&#xf012;" d="M0.00,39.00l0.00,260.00 q0.00,16.00 11.50,27.50t 27.50,11.50l 192.00,0.00 q 16.00,0.00 26.50-11.50t 10.50-27.50l0.00-260.00 q0.00-16.00 -10.00-27.50t-27.00-11.50l-192.00,0.00 q-39.00,0.00 -39.00,39.00zM 393.00,39.00l0.00,434.00 q0.00,16.00 11.50,27.50t 27.50,11.50l 193.00,0.00 q 16.00,0.00 26.50-11.50t 10.50-27.50l0.00-434.00 q0.00-16.00 -10.50-27.50t-26.50-11.50l-193.00,0.00 q-16.00,0.00 -27.50,11.50t-11.50,27.50z M 786.00,39.00l0.00,676.00 q0.00,16.00 11.50,27.50t 27.50,11.50l 193.00,0.00 q 16.00,0.00 27.50-11.50t 11.50-27.50l0.00-676.00 q0.00-16.00 -11.50-27.50t-27.50-11.50l-193.00,0.00 q-16.00,0.00 -27.50,11.50t-11.50,27.50zM 1182.00,39.00l0.00,995.00 q0.00,16.00 10.00,27.50t 27.00,11.50l 192.00,0.00 q 16.00,0.00 27.50-11.00t 11.50-28.00l0.00-995.00 q0.00-16.00 -11.50-27.50t-27.50-11.50l-192.00,0.00 q-16.00,0.00 -26.50,11.50 t-10.50,27.50zM 1575.00,39.00l0.00,1458.00 q0.00,39.00 39.00,39.00l 190.00,0.00 q 39.00,0.00 39.00-39.00l0.00-1458.00 q0.00-39.00 -39.00-39.00l-190.00,0.00 q-39.00,0.00 -39.00,39.00z" horiz-adv-x="1843" />
<glyph unicode="&#xf013;" d="M0.00,651.00l0.00,236.00 q0.00,12.00 30.50,21.50t 68.50,15.50t 74.00,9.00t 48.00,5.00q 18.00,61.00 49.00,117.00q-55.00,82.00 -120.00,157.00l-7.00,15.00q0.00,8.00 28.00,38.50t 62.50,65.50t 66.50,62.50t 40.00,27.50q 2.00,0.00 26.50-18.50t 54.50-41.00t 56.50-43.00t 32.50-24.50q 29.00,16.00 58.50,26.50t 60.50,20.50q0.00,12.00 3.00,49.00t 9.00,75.00t 15.50,69.00t 21.50,31.00l 237.00,0.00 q 14.00,0.00 19.00-15.00 q 12.00-49.00 17.00-103.00t 14.00-106.00q 31.00-8.00 59.50-19.00t 56.50-28.00q 8.00,6.00 34.00,26.50t 55.50,43.00t 53.00,40.00t 29.50,17.50t 37.00-27.50t 65.00-62.50t 61.50-65.50t 27.50-38.50q0.00-4.00 -17.50-28.50t-39.00-53.50t-42.00-55.50t-24.50-32.50q 33.00-55.00 51.00-123.00q 49.00-10.00 103.50-13.00t 101.50-20.00q 16.00-4.00 16.00-18.00l0.00-236.00 q0.00-12.00 -29.50-21.50 t-68.50-15.50t-76.00-9.00t-49.00-5.00q-14.00-57.00 -47.00-117.00q 55.00-82.00 121.00-157.00l 6.00-15.00q0.00-8.00 -27.50-38.50t-62.50-65.50t-66.50-62.50t-40.50-27.50q-2.00,0.00 -26.50,18.50t-54.00,41.00t-56.00,43.00t-33.50,24.50q-29.00-16.00 -58.50-27.50t-59.50-19.50q-2.00-12.00 -5.50-49.50t-9.50-76.00t-14.00-69.50t-21.00-31.00l-237.00,0.00 q-14.00,0.00 -19.00,17.00 q-14.00,49.00 -19.00,103.00t-11.00,103.00q-61.00,18.00 -117.00,50.00q-41.00-31.00 -81.00-60.50t-79.00-62.50l-12.00-4.00q-6.00,0.00 -37.00,27.50t-64.50,62.50t-61.00,65.50t-27.50,38.50q0.00,2.00 16.00,26.50t 37.50,53.50t 42.00,55.50t 26.50,34.50q-33.00,55.00 -51.00,123.00q-51.00,10.00 -104.50,13.00t-100.50,20.00q-16.00,4.00 -16.00,18.00zM 557.00,768.00q0.00-49.00 18.50-93.00t 51.00-77.00t 77.00-52.50 t 93.50-19.50t 93.00,19.50t 75.50,52.50t 51.00,77.00t 19.50,93.00t-19.50,92.00t-51.00,76.00t-75.50,51.50t-93.00,18.50t-93.50-18.50t-77.00-51.50t-51.00-76.00t-18.50-92.00z" horiz-adv-x="1593" />
<glyph unicode="&#xf014;" d="M0.00,1175.50l0.00,34.50 l0.00,36.00 t 2.00,36.00q 25.00,14.00 71.00,23.50t 98.00,15.50t 102.50,9.00t 78.50,5.00q-8.00,82.00 11.50,128.00t 59.50,68.50t 98.50,29.00t 131.50,6.50q 55.00,0.00 109.50-3.00t 97.50-20.50t 68.50-54.50t 25.50-105.00l0.00-24.00 t-2.00-25.00q 29.00-2.00 79.00-5.00t 102.50-9.00t 99.50-15.50t 72.00-23.50l0.00-72.00 l0.00-69.00 q-37.00-20.00 -123.00-32.50t-185.50-19.00t-193.50-7.50 t-150.00-1.00q-55.00,0.00 -150.00,1.00t-194.50,7.50t-184.50,18.50t-122.00,33.00q-2.00,16.00 -2.00,34.50zM 133.00,154.00l0.00,837.00 q 123.00-16.00 244.00-21.00t 244.00-5.00l 32.00,0.00 q 129.00,2.00 258.00,6.00t 258.00,20.00l0.00-837.00 q0.00-63.00 -44.00-108.50t-107.00-45.50l-731.00,0.00 q-63.00,0.00 -108.50,45.00t-45.50,109.00zM 303.00,199.00q0.00-16.00 10.50-26.50t 26.50-10.50l 39.00,0.00 q 16.00,0.00 27.50,10.00t 11.50,27.00l0.00,614.00  q0.00,16.00 -11.50,27.50t-27.50,11.50l-39.00,0.00 q-16.00,0.00 -26.50-11.50t-10.50-27.50l0.00-614.00 zM 504.00,1384.00q0.00-10.00 1.00-22.00t 3.00-23.00q 144.00,2.00 291.00,0.00q0.00,12.00 2.00,23.50t0.00,21.50l0.00,15.00 q-35.00,10.00 -74.00,11.00t-74.00,1.00q-37.00,0.00 -75.50-1.00t-73.50-11.00l0.00-15.00 zM 596.00,199.00q0.00-16.00 10.00-26.50t 27.00-10.50l 39.00,0.00 q 16.00,0.00 27.50,10.00t 11.50,27.00l0.00,614.00 q0.00,16.00 -11.50,27.50 t-27.50,11.50l-39.00,0.00 q-16.00,0.00 -26.50-11.50t-10.50-27.50l0.00-614.00 zM 887.00,199.00q0.00-16.00 11.00-26.50t 28.00-10.50l 39.00,0.00 q 16.00,0.00 27.50,10.00t 11.50,27.00l0.00,614.00 q0.00,16.00 -11.50,27.50t-27.50,11.50l-39.00,0.00 q-16.00,0.00 -27.50-11.50t-11.50-27.50l0.00-614.00 z" horiz-adv-x="1304" />
<glyph unicode="&#xf015;" d="M0.00,809.50q 2.00,15.50 14.00,26.50l 867.00,710.00q 27.00,20.00 59.00,21.00q 33.00,0.00 59.00-21.00l 240.00-196.00l0.00,102.00 q0.00,16.00 11.50,27.50t 27.50,11.50l 223.00,0.00 q 16.00,0.00 26.50-11.50t 10.50-27.50l0.00-348.00 l 328.00-268.00q 12.00-10.00 14.00-25.50t-8.00-28.50l-45.00-53.00q-10.00-14.00 -29.00-14.00l-65.00,0.00 q-16.00,0.00 -25.00,8.00l-743.00,608.00q-25.00,20.00 -50.00,0.00l-743.00-608.00q-8.00-8.00 -25.00-8.00 l-65.00,0.00 q-18.00,0.00 -29.00,14.00l-45.00,53.00q-10.00,12.00 -8.00,27.50zM 266.00,76.00l0.00,622.00 l 674.00,553.00l 674.00-553.00l0.00-622.00 q0.00-33.00 -21.50-54.50t-54.50-21.50l-422.00,0.00 l0.00,498.00 l-352.00,0.00 l0.00-498.00 l-422.00,0.00 q-33.00,0.00 -54.50,21.50t-21.50,54.50z" horiz-adv-x="1880" />
<glyph unicode="&#xf016;" d="M0.00,78.00l0.00,1382.00 q0.00,31.00 22.50,53.50t 55.50,22.50l 614.00,0.00 q 33.00,0.00 71.00-16.50t 60.00-38.50l 351.00-351.00q 23.00-23.00 39.00-60.50t 16.00-70.50l0.00-921.00 q0.00-33.00 -22.50-55.50t-53.50-22.50l-1075.00,0.00 q-33.00,0.00 -55.50,22.50t-22.50,55.50zM 154.00,154.00l 921.00,0.00 l0.00,692.00 l-459.00,0.00 q-31.00,0.00 -53.00,22.50t-22.00,55.50l0.00,458.00 l-387.00,0.00 l0.00-1228.00 zM 268.00,326.00l0.00,116.00 l 693.00,0.00 l0.00-116.00  l-693.00,0.00 zM 268.00,596.00l0.00,115.00 l 693.00,0.00 l0.00-115.00 l-693.00,0.00 zM 694.00,999.00l 381.00,0.00 q0.00,4.00 -4.00,13.50t-6.00,11.50l-350.00,348.00q-2.00,4.00 -9.50,6.00t-11.50,4.00l0.00-383.00 z" horiz-adv-x="1228" />
<glyph unicode="&#xf017;" d="M0.00,768.00q0.00,166.00 62.50,311.50t 171.00,254.00t 254.00,171.00t 311.50,62.50t 311.00-62.50t 254.00-171.00t 171.00-254.00t 62.00-311.50t-62.00-311.50t-171.00-254.00t-254.00-171.00t-311.00-62.50t-311.50,62.50t-254.00,171.00t-171.00,254.00t-62.50,311.50zM 240.00,768.00q0.00-117.00 44.00-218.00t 119.50-177.00t 177.00-120.00t 218.50-44.00t 218.00,44.00t 177.00,120.00t 120.00,177.00 t 44.00,218.00t-44.00,218.00t-120.00,177.00t-177.50,120.00t-217.50,44.00q-117.00,0.00 -218.50-44.00t-177.00-120.00t-119.50-177.00t-44.00-218.00zM 635.00,608.00l0.00,465.00 q0.00,33.00 23.50,56.50t 56.50,23.50l 80.00,0.00 q 35.00,0.00 57.00-23.50t 22.00-56.50l0.00-305.00 l 201.00,0.00 q 33.00,0.00 56.50-23.50t 23.50-56.50l0.00-80.00 q0.00-33.00 -23.50-56.50t-56.50-23.50l-360.00,0.00 q-33.00,0.00 -56.50,23.50 t-23.50,56.50z" horiz-adv-x="1597" />
<glyph unicode="&#xf018;" d="M 2.00,35.00l 594.00,1466.00q 6.00,14.00 21.50,24.50t 31.50,10.50l 195.00,0.00 l-8.00-170.00l 172.00,0.00 l-9.00,170.00l 195.00,0.00 q 16.00,0.00 31.50-10.00t 21.50-25.00l 594.00-1466.00q 6.00-14.00 -1.00-24.50t-23.00-10.50l-740.00,0.00 l-26.00,512.00l-258.00,0.00 l-27.00-512.00l-739.00,0.00 q-16.00,0.00 -23.50,10.00t-1.50,25.00zM 807.00,797.00l 229.00,0.00 l-20.00,413.00l-189.00,0.00 z" horiz-adv-x="1843" />
<glyph unicode="&#xf019;" d="M0.00,39.00l0.00,614.00 q0.00,16.00 11.50,27.50t 27.50,11.50l 229.00,0.00 q 16.00,0.00 27.50-11.00t 11.50-28.00l0.00-346.00 l 1229.00,0.00 l0.00,346.00 q0.00,16.00 11.50,27.50t 27.50,11.50l 229.00,0.00 q 16.00,0.00 27.50-11.00t 11.50-28.00l0.00-614.00 q0.00-39.00 -39.00-39.00l-1765.00,0.00 q-39.00,0.00 -39.00,39.00zM 345.50,944.50q 6.50,16.50 39.50,16.50l 307.00,0.00 l0.00,499.00 q0.00,31.00 21.50,53.50t 54.50,22.50l 307.00,0.00 q 33.00,0.00 55.50-22.50 t 22.50-53.50l0.00-499.00 l 307.00,0.00 q 31.00,0.00 37.00-16.50t-16.00-39.50l-504.00-506.00q-23.00-23.00 -55.50-22.50t-55.50,22.50l-504.00,506.00q-23.00,23.00 -16.50,39.50z" horiz-adv-x="1843" />
<glyph unicode="&#xf01a;" d="M0.00,768.00q0.00,166.00 62.50,311.50t 171.00,254.00t 254.00,171.00t 311.50,62.50t 311.00-62.50t 254.00-171.00t 171.00-254.00t 62.00-311.50t-62.00-311.50t-171.00-254.00t-254.00-171.00t-311.00-62.50t-311.50,62.50t-254.00,171.00t-171.00,254.00t-62.50,311.50zM 240.00,768.00q0.00-117.00 44.00-218.00t 119.50-177.00t 177.00-120.00t 218.50-44.00t 218.00,44.00t 177.00,120.00t 120.00,177.00 t 44.00,218.00t-44.00,218.00t-120.00,177.00t-177.50,120.00t-217.50,44.00q-117.00,0.00 -218.50-44.00t-177.00-120.00t-119.50-177.00t-44.00-218.00zM 414.00,743.00q 10.00,25.00 37.00,25.00l 208.00,0.00 l0.00,358.00 q0.00,16.00 11.50,28.50t 27.50,12.50l 201.00,0.00 q 16.00,0.00 27.50-12.00t 11.50-29.00l0.00-358.00 l 209.00,0.00 q 27.00,0.00 37.00-25.00t-10.00-43.00l-347.00-346.00q-14.00-10.00 -28.00-10.00t-29.00,10.00l-346.00,346.00 q-20.00,18.00 -10.00,43.00z" horiz-adv-x="1597" />
<glyph unicode="&#xf01b;" d="M0.00,768.00q0.00,166.00 62.50,311.50t 171.00,254.00t 254.00,171.00t 311.50,62.50t 311.00-62.50t 254.00-171.00t 171.00-254.00t 62.00-311.50t-62.00-311.50t-171.00-254.00t-254.00-171.00t-311.00-62.50t-311.50,62.50t-254.00,171.00t-171.00,254.00t-62.50,311.50zM 240.00,768.00q0.00-117.00 44.00-218.00t 119.50-177.00t 177.00-120.00t 218.50-44.00t 218.00,44.00t 177.00,120.00t 120.00,177.00 t 44.00,218.00t-44.00,218.00t-120.00,177.00t-177.00,120.00t-218.00,44.00t-218.50-44.00t-177.00-120.00t-119.50-177.00t-44.00-218.00zM 414.00,793.00q-10.00,25.00 10.00,43.00l 346.00,346.00q 14.00,10.00 29.00,10.00q 14.00,0.00 28.00-10.00l 347.00-346.00q 20.00-18.00 10.00-43.00t-37.00-25.00l-209.00,0.00 l0.00-360.00 q0.00-16.00 -11.50-27.50t-27.50-11.50l-201.00,0.00 q-16.00,0.00 -27.50,11.00t-11.50,28.00l0.00,360.00 l-208.00,0.00  q-27.00,0.00 -37.00,25.00z" horiz-adv-x="1597" />
<glyph unicode="&#xf01c;" d="M0.00,78.00l0.00,577.00 q0.00,33.00 9.00,76.00t 22.00,72.00l 284.00,663.00q 12.00,29.00 44.00,49.50t 63.00,20.50l 999.00,0.00 q 31.00,0.00 63.00-20.50t 44.00-49.50l 284.00-663.00q 12.00-29.00 21.50-72.00t 9.50-76.00l0.00-577.00 q0.00-33.00 -22.50-55.50t-53.50-22.50l-1689.00,0.00 q-33.00,0.00 -55.50,22.50t-22.50,55.50zM 238.00,694.00l 387.00,0.00 l 114.00-231.00l 383.00,0.00 l 117.00,231.00l 367.00,0.00 q-2.00,4.00 -2.00,9.50t-2.00,9.50l-256.00,594.00 l-848.00,0.00 l-256.00-596.00q-2.00-2.00 -2.00-7.50t-2.00-9.50z" horiz-adv-x="1843" />
<glyph unicode="&#xf01d;" d="M0.00,768.00q0.00,166.00 62.50,311.50t 171.00,254.00t 254.00,171.00t 311.50,62.50t 311.00-62.50t 254.00-171.00t 171.00-254.00t 62.00-311.50t-62.00-311.50t-171.00-254.00t-254.00-171.00t-311.00-62.50t-311.50,62.50t-254.00,171.00t-171.00,254.00t-62.50,311.50zM 240.00,768.00q0.00-117.00 44.00-218.00t 119.50-177.00t 177.00-120.00t 218.50-44.00t 218.00,44.00t 177.00,120.00t 120.00,177.00 t 44.00,218.00t-44.00,218.00t-120.00,177.00t-177.50,120.00t-217.50,44.00q-117.00,0.00 -218.50-44.00t-177.00-120.00t-119.50-177.00t-44.00-218.00zM 582.00,453.00l0.00,628.00 q0.00,18.00 16.00,29.00q 20.00,8.00 31.00,0.00l 545.00-315.00q 16.00-6.00 16.00-27.00q0.00-20.00 -16.00-27.00l-545.00-315.00q-8.00-4.00 -15.00-4.00q-8.00,0.00 -16.00,4.00q-16.00,10.00 -16.00,27.00z" horiz-adv-x="1597" />
<glyph unicode="&#xf01e;" d="M0.00,768.00q0.00,166.00 62.50,311.50t 171.00,254.00t 254.00,171.00t 311.50,62.50q 141.00,0.00 271.00-48.50t 239.00-140.50l 161.00,162.00q 35.00,35.00 58.50,24.50t 23.50-57.50l0.00-463.00 q0.00-33.00 -22.00-55.00q-10.00-10.00 -23.50-16.00t-29.50-6.00l-463.00,0.00 q-47.00,0.00 -58.50,23.50t 23.50,58.50l 160.00,159.00q-72.00,57.00 -159.00,88.00t-181.00,31.00q-117.00,0.00 -218.50-44.00t-177.00-120.00 t-119.50-177.00t-44.00-218.00t 44.00-218.00t 119.50-177.00t 177.00-120.00t 218.50-44.00q 104.00,0.00 198.50,37.00t 169.00,101.50t 123.50,153.50t 64.00,191.00q0.00,16.00 14.00,27.00q 14.00,10.00 31.00,8.00l 157.00-20.00q 16.00-4.00 26.50-16.50t 8.50-28.50q-20.00-147.00 -89.50-274.50t-176.00-220.50t-242.00-145.50t-284.50-52.50q-166.00,0.00 -311.50,62.50t-254.00,171.00 t-171.00,254.00t-62.50,311.50z" horiz-adv-x="1591" />
<glyph unicode="&#xf021;" d="M 6.00,311.00l 150.00,437.00q 10.00,33.00 39.00,45.00t 59.00,4.00l 438.00-150.00q 45.00-16.00 46.00-40.50t-42.00-47.50l-202.00-100.00q 53.00-78.00 123.50-134.50t 160.50-86.50q 111.00-37.00 221.50-28.00t 207.00,56.00t 170.00,129.00t 110.50,193.00q 6.00,16.00 20.50,22.00t 30.50,2.00l 152.00-51.00q 16.00-6.00 23.00-20.50t 1.00-30.50q-53.00-158.00 -159.50-274.50t-243.50-184.00t-296.00-81.00 t-315.00,39.50q-135.00,47.00 -241.50,134.00t-179.50,208.00l-205.00-100.00q-43.00-23.00 -63.50-5.50t-4.50,64.50zM 203.00,1024.00q 53.00,156.00 159.50,273.50t 243.50,185.00t 295.00,81.00t 316.00-39.50q 133.00-47.00 240.50-134.00t 180.50-208.00l 205.00,100.00q 43.00,23.00 63.50,5.50t 4.50-62.50l-150.00-439.00q-10.00-33.00 -39.00-45.00t-59.00-4.00l-438.00,150.00 q-45.00,16.00 -46.00,40.50t 40.00,47.50l 202.00,100.00q-51.00,78.00 -122.50,134.50t-159.50,86.50q-111.00,37.00 -221.50,28.00t-207.00-56.00t-170.00-129.00t-110.50-193.00q-6.00-16.00 -20.50-22.00t-30.50-2.00l-152.00,51.00q-16.00,6.00 -23.00,20.50t-1.00,30.50z" horiz-adv-x="1916" />
<glyph unicode="&#xf022;" d="M0.00,115.00l0.00,1306.00 q0.00,47.00 34.00,81.00t 81.00,34.00l 1614.00,0.00 q 47.00,0.00 80.50-34.00t 33.50-81.00l0.00-1306.00 q0.00-47.00 -33.50-81.00t-80.50-34.00l-1614.00,0.00 q-47.00,0.00 -81.00,34.00t-34.00,81.00zM 154.00,154.00l 1536.00,0.00 l0.00,1075.00 l-1536.00,0.00 l0.00-1075.00 zM 307.00,346.00l0.00,76.00 q0.00,39.00 39.00,39.00l 154.00,0.00 q 16.00,0.00 27.50-11.50t 11.50-27.50l0.00-76.00 q0.00-16.00 -11.50-27.50t-27.50-11.50l-154.00,0.00 q-39.00,0.00 -39.00,39.00 zM 307.00,653.00l0.00,76.00 q0.00,39.00 39.00,39.00l 154.00,0.00 q 16.00,0.00 27.50-11.50t 11.50-27.50l0.00-76.00 q0.00-16.00 -11.50-27.50t-27.50-11.50l-154.00,0.00 q-39.00,0.00 -39.00,39.00zM 307.00,961.00l0.00,75.00 q0.00,39.00 39.00,39.00l 154.00,0.00 q 16.00,0.00 27.50-11.00t 11.50-28.00l0.00-75.00 q0.00-16.00 -11.50-27.50t-27.50-11.50l-154.00,0.00 q-39.00,0.00 -39.00,39.00zM 692.00,346.00l0.00,76.00 q0.00,16.00 10.50,27.50t 26.50,11.50l 768.00,0.00  q 39.00,0.00 39.00-39.00l0.00-76.00 q0.00-39.00 -39.00-39.00l-768.00,0.00 q-16.00,0.00 -26.50,11.50t-10.50,27.50zM 692.00,653.00l0.00,76.00 q0.00,16.00 10.50,27.50t 26.50,11.50l 768.00,0.00 q 39.00,0.00 39.00-39.00l0.00-76.00 q0.00-39.00 -39.00-39.00l-768.00,0.00 q-16.00,0.00 -26.50,11.50t-10.50,27.50zM 692.00,961.00l0.00,75.00 q0.00,16.00 10.50,27.50t 26.50,11.50l 768.00,0.00 q 39.00,0.00 39.00-39.00l0.00-75.00 q0.00-39.00 -39.00-39.00l-768.00,0.00  q-16.00,0.00 -26.50,11.00t-10.50,28.00z" horiz-adv-x="1843" />
<glyph unicode="&#xf023;" d="M0.00,117.00l0.00,626.00 q0.00,39.00 21.50,69.00t 56.50,42.00l0.00,164.00 q0.00,113.00 43.00,213.00t 117.50,175.00t 175.00,118.00t 213.50,43.00t 213.00-43.00t 175.00-118.00t 118.00-175.50t 43.00-212.50l0.00-164.00 q 35.00-12.00 56.00-42.00t 21.00-69.00l0.00-626.00 q0.00-47.00 -34.50-82.00t-81.50-35.00l-1020.00,0.00 q-47.00,0.00 -82.00,35.00t-35.00,82.00zM 313.00,862.00l 627.00,0.00 l0.00,156.00 q0.00,66.00 -24.50,123.00t-67.50,99.00t-100.50,66.50 t-120.50,24.50q-66.00,0.00 -122.00-24.50t-99.50-66.50t-68.00-99.50t-24.50-122.50l0.00-156.00 zM 494.00,164.00l 266.00,0.00 l-66.00,285.00q 29.00,18.00 47.50,48.50t 18.50,65.50q0.00,55.00 -39.00,95.00t-94.00,40.00t-94.00-40.00t-39.00-95.00q0.00-35.00 18.00-65.50t 47.00-46.50z" horiz-adv-x="1253" />
<glyph unicode="&#xf024;" d="M0.00,1382.00q0.00,63.00 45.00,108.50t 109.00,45.50q 63.00,0.00 108.00-45.50t 45.00-108.50q0.00-41.00 -20.50-74.50t-55.50-56.50l0.00-1212.00 q0.00-16.00 -11.00-27.50t-27.00-11.50l-78.00,0.00 q-16.00,0.00 -26.50,11.50t-10.50,27.50l0.00,1212.00 q-35.00,23.00 -56.50,56.50t-21.50,74.50zM 307.00,416.00l0.00,745.00 q0.00,33.00 19.50,66.00t 48.50,49.00q 104.00,55.00 188.00,86.00t 144.00,45.00q 70.00,16.00 124.00,18.00 q 68.00,0.00 124.50-11.00t 107.50-29.50t 99.00-43.00t 100.00-51.50q 63.00-29.00 145.00-33.00q 70.00-4.00 164.00,15.50t 207.00,87.50q 29.00,16.00 47.00,6.00t 18.00-43.00l0.00-748.00 q0.00-31.00 -18.50-64.50t-46.50-49.50q-113.00-68.00 -207.00-87.50t-164.00-15.50q-82.00,4.00 -145.00,33.00q-51.00,27.00 -99.50,51.50t-99.50,43.00t-107.50,29.50t-124.50,11.00q-55.00-2.00 -124.00-18.00 q-59.00-14.00 -143.50-45.00t-188.50-88.00q-29.00-16.00 -48.50-4.00t-19.50,45.00z" horiz-adv-x="1843" />
<glyph unicode="&#xf025;" d="M0.00,729.00q0.00,172.00 85.00,324.50t 221.00,266.50t 307.00,180.50t 345.00,66.50t 345.50-66.50t 307.50-180.50t 221.00-266.50t 85.00-326.50q0.00-182.00 -78.00-350.00l-27.00-60.00l-174.00-26.00q-27.00-104.00 -110.50-173.00t-196.50-69.00l0.00-41.00 q0.00-16.00 -12.00-27.50t-29.00-11.50l-80.00,0.00 q-16.00,0.00 -27.50,11.50t-11.50,27.50l0.00,719.00 q0.00,16.00 11.50,28.50 t 27.50,12.50l 80.00,0.00 q 16.00,0.00 28.50-12.50t 12.50-28.50l0.00-39.00 q 88.00,0.00 161.00-44.00t 114.00-116.00l 39.00,7.00q 33.00,90.00 32.00,192.00q0.00,125.00 -65.50,233.50t-170.00,190.50t-232.50,129.00t-251.00,47.00t-250.50-47.00t-232.00-128.00t-170.00-190.50t-65.50-232.50q0.00-104.00 32.00-194.00l 39.00-7.00q 41.00,72.00 114.00,116.00t 161.00,44.00l0.00,39.00 q0.00,16.00 12.00,28.50t 29.00,12.50l 80.00,0.00  q 16.00,0.00 27.00-12.50t 11.00-28.50l0.00-719.00 q0.00-16.00 -11.00-27.50t-27.00-11.50l-80.00,0.00 q-16.00,0.00 -28.50,11.50t-12.50,27.50l0.00,41.00 q-55.00,0.00 -106.50,18.50t-91.50,50.50t-68.50,76.00t-40.50,97.00l-175.00,26.00l-26.00,60.00q-78.00,168.00 -78.00,352.00z" horiz-adv-x="1916" />
<glyph unicode="&#xf026;" d="M0.00,578.00l0.00,380.00 q0.00,16.00 11.50,27.50t 27.50,11.50l 420.00,0.00 l 325.00,326.00q 49.00,51.00 84.00,37.00t 35.00-86.00l0.00-1012.00 q0.00-72.00 -34.50-86.00t-84.50,37.00l-325.00,326.00l-420.00,0.00 q-16.00,0.00 -27.50,11.00t-11.50,28.00z" horiz-adv-x="905" />
<glyph unicode="&#xf027;" d="M0.00,578.00l0.00,380.00 q0.00,16.00 11.50,27.50t 27.50,11.50l 420.00,0.00 l 325.00,326.00q 49.00,51.00 84.00,37.00t 35.00-86.00l0.00-1012.00 q0.00-72.00 -34.50-86.00t-84.50,37.00l-325.00,326.00l-420.00,0.00 q-16.00,0.00 -27.50,11.00t-11.50,28.00zM 1027.00,406.00q-9.00,32.00 7.00,61.00q 84.00,145.00 84.00,301.00t-84.00,301.00q-16.00,29.00 -7.00,61.00t 38.00,48.00t 60.50,8.00t 48.50-37.00q 104.00-182.00 104.00-381.00q0.00-201.00 -104.00-381.00 q-23.00-41.00 -70.00-41.00q-20.00,0.00 -39.00,12.00q-29.00,16.00 -38.00,48.00z" horiz-adv-x="1277" />
<glyph unicode="&#xf028;" d="M0.00,578.00l0.00,380.00 q0.00,16.00 11.50,27.50t 27.50,11.50l 420.00,0.00 l 325.00,326.00q 49.00,51.00 84.00,37.00t 35.00-86.00l0.00-1012.00 q0.00-72.00 -34.50-86.00t-84.50,37.00l-325.00,326.00l-420.00,0.00 q-16.00,0.00 -27.50,11.00t-11.50,28.00zM 1027.00,406.00q-9.00,32.00 7.00,61.00q 84.00,145.00 84.00,301.00t-84.00,301.00q-16.00,29.00 -7.00,61.00t 38.00,48.00t 60.50,8.00t 48.50-37.00q 104.00-182.00 104.00-381.00q0.00-201.00 -104.00-381.00 q-23.00-41.00 -70.00-41.00q-20.00,0.00 -39.00,12.00q-29.00,16.00 -38.00,48.00zM 1285.00,219.00q-7.00,33.00 11.00,62.00q 141.00,225.00 142.00,487.00q0.00,262.00 -142.00,487.00q-18.00,29.00 -11.00,62.00t 36.00,49.00q 29.00,18.00 61.00,11.00t 50.00-36.00q 82.00-131.00 123.50-275.00t 41.50-298.00q0.00-309.00 -167.00-573.00q-10.00-18.00 -29.00-27.50t-37.00-9.50q-25.00,0.00 -43.00,12.00q-29.00,16.00 -36.00,49.00zM 1540.00,33.00 q-6.00,33.00 12.00,59.00q 100.00,154.00 152.50,325.00t 52.50,351.00t-52.00,351.00t-153.00,323.00q-18.00,29.00 -12.00,61.50t 35.00,50.50q 29.00,16.00 61.00,10.50t 50.00-32.50q 115.00-174.00 173.00-366.50t 58.00-397.50t-58.50-397.50t-172.50-364.50q-10.00-18.00 -29.00-27.50t-37.00-9.50q-25.00,0.00 -45.00,13.00q-29.00,18.00 -35.00,51.00z" horiz-adv-x="1916" />
<glyph unicode="&#xf029;" d="M0.00,0.00l0.00,698.00 l 698.00,0.00 l0.00-698.00 l-698.00,0.00 zM0.00,838.00l0.00,698.00 l 698.00,0.00 l0.00-698.00 l-698.00,0.00 zM 139.00,139.00l 420.00,0.00 l0.00,420.00 l-420.00,0.00 l0.00-420.00 zM 139.00,977.00l 420.00,0.00 l0.00,420.00 l-420.00,0.00 l0.00-420.00 zM 279.00,279.00l0.00,141.00 l 141.00,0.00 l0.00-141.00 l-141.00,0.00 zM 279.00,1116.00l0.00,139.00 l 141.00,0.00 l0.00-139.00 l-141.00,0.00 zM 838.00,0.00l0.00,698.00 l 417.00,0.00 l0.00-139.00 l 142.00,0.00 l0.00,139.00 l 139.00,0.00 l0.00-419.00 l-420.00,0.00 l0.00,139.00 l-139.00,0.00 l0.00-418.00 l-139.00,0.00 zM 838.00,838.00l0.00,698.00 l 698.00,0.00 l0.00-698.00 l-698.00,0.00 z M 977.00,977.00l 420.00,0.00 l0.00,420.00 l-420.00,0.00 l0.00-420.00 zM 1116.00,0.00l0.00,139.00 l 139.00,0.00 l0.00-139.00 l-139.00,0.00 zM 1116.00,1116.00l0.00,139.00 l 139.00,0.00 l0.00-139.00 l-139.00,0.00 zM 1397.00,0.00l0.00,139.00 l 139.00,0.00 l0.00-139.00 l-139.00,0.00 z" horiz-adv-x="1536" />
<glyph unicode="&#xf02a;" d="M0.00,0.00l0.00,1536.00 l 154.00,0.00 l0.00-1536.00 l-154.00,0.00 zM 227.00,0.00l0.00,1536.00 l 37.00,0.00 l0.00-1536.00 l-37.00,0.00 zM 356.00,0.00l0.00,1536.00 l 117.00,0.00 l0.00-1536.00 l-117.00,0.00 zM 545.00,0.00l0.00,1536.00 l 78.00,0.00 l0.00-1536.00 l-78.00,0.00 zM 715.00,0.00l0.00,1536.00 l 76.00,0.00 l0.00-1536.00 l-76.00,0.00 zM 903.00,0.00l0.00,1536.00 l 37.00,0.00 l0.00-1536.00 l-37.00,0.00 zM 1014.00,0.00l0.00,1536.00 l 153.00,0.00 l0.00-1536.00 l-153.00,0.00 zM 1221.00,0.00l0.00,1536.00 l 77.00,0.00 l0.00-1536.00 l-77.00,0.00 zM 1409.00,0.00l0.00,1536.00 l 39.00,0.00 l0.00-1536.00 l-39.00,0.00 zM 1579.00,0.00l0.00,1536.00 l 37.00,0.00  l0.00-1536.00 l-37.00,0.00 zM 1690.00,0.00l0.00,1536.00 l 153.00,0.00 l0.00-1536.00 l-153.00,0.00 z" horiz-adv-x="1843" />
<glyph unicode="&#xf02b;" d="M0.00,961.00l0.00,454.00 q0.00,49.00 35.00,85.00t 86.00,36.00l 454.00,0.00 q 51.00,0.00 113.00-24.50t 94.00-61.50l 672.00-748.00q 33.00-39.00 34.00-88.00t-34.00-84.00l-526.00-526.00q-35.00-35.00 -86.00-36.00t-86.00,36.00l-670.00,750.00q-35.00,37.00 -60.50,96.00t-25.50,111.00zM 197.00,1223.00q0.00-49.00 33.50-83.00t 82.50-34.00t 83.00,34.00t 34.00,83.00t-34.00,82.50t-83.00,33.50t-82.50-33.50t-33.50-82.50z" horiz-adv-x="1488" />
<glyph unicode="&#xf02c;" d="M0.00,961.00l0.00,454.00 q0.00,49.00 35.00,85.00t 86.00,36.00l 454.00,0.00 q 25.00,0.00 53.50-6.00t 57.50-18.50t 54.50-28.00t 41.50-33.50l 670.00-748.00q 33.00-37.00 34.00-86.00t-34.00-84.00l-526.00-524.00q-35.00-35.00 -86.50-37.00t-83.50,37.00l-670.00,746.00q-35.00,39.00 -60.50,98.00t-25.50,109.00zM 195.00,1223.00q0.00-47.00 34.50-82.00t 83.50-35.00q 47.00,0.00 82.00,35.00t 35.00,82.00q0.00,49.00 -35.00,83.50 t-82.00,34.50q-49.00,0.00 -83.50-34.50t-34.50-83.50zM 791.00,1534.00l 174.00,0.00 q 51.00,0.00 112.50-24.50t 93.50-61.50l 670.00-748.00q 35.00-37.00 35.00-87.00t-35.00-85.00l-524.00-524.00q-35.00-35.00 -86.00-36.00t-86.00,36.00l-12.00,14.00l 514.00,514.00q 35.00,35.00 34.50,84.50t-34.50,85.50l-670.00,748.00q-31.00,35.00 -84.00,56.50t-102.00,27.50z" horiz-adv-x="1875" />
<glyph unicode="&#xf02d;" d="M 10.00,311.00q 2.00,16.00 4.00,31.50t 4.00,34.50q0.00,10.00 -4.00,20.50t-2.00,20.50q 2.00,16.00 15.50,31.50t 25.50,35.50q 23.00,37.00 45.50,90.50t 32.50,92.50q 4.00,16.00 -1.00,30.50t-1.00,26.50q 4.00,16.00 16.50,27.50t 20.50,23.50q 10.00,18.00 21.50,42.00t 21.50,49.50t 16.00,50.00t 8.00,40.50t-2.00,33.00t0.00,29.00q 6.00,16.00 20.50,26.50t 24.50,24.50q 10.00,12.00 21.50,34.50t 23.00,49.50t 19.50,52.50 t 10.00,45.50q 2.00,12.00 -4.00,24.50t-2.00,27.50q 4.00,14.00 18.50,29.50t 26.50,31.50q 16.00,25.00 28.50,58.50t 30.00,61.00t 46.00,43.00t 77.50,1.50l-2.00-4.00q 31.00,10.00 54.00,10.00l 780.00,0.00 q 78.00,0.00 119.00-57.00q 41.00-53.00 18.00-129.00l-283.00-906.00q-18.00-63.00 -77.50-107.00t-126.50-44.00l-893.00,0.00 q-10.00,0.00 -20.50-2.00t-18.50-12.00q-12.00-20.00 0.00-56.00q 16.00-43.00 60.00-75.50t 87.00-32.50l 946.00,0.00  q 29.00,0.00 57.50,21.50t 37.50,47.50l 309.00,987.00q 4.00,16.00 5.00,29.50t-1.00,28.50q 41.00-14.00 61.00-43.00q 41.00-53.00 19.00-129.00l-283.00-905.00q-18.00-66.00 -77.50-109.00t-127.50-43.00l-946.00,0.00 q-41.00,0.00 -79.50,14.50t-73.50,39.00t-61.50,58.00t-41.50,72.50q-25.00,68.00 -2.00,127.00zM 500.00,961.00q-10.00-39.00 26.00-39.00l 615.00,0.00 q 16.00,0.00 30.50,11.00t 18.50,28.00l 24.00,75.00 q 4.00,16.00 -3.00,27.50t-23.00,11.50l-615.00,0.00 q-16.00,0.00 -31.50-11.00t-19.50-28.00zM 569.00,1190.00q-4.00-16.00 3.50-26.50t 23.50-10.50l 614.00,0.00 q 16.00,0.00 30.50,10.50t 21.50,26.50l 22.00,78.00q 4.00,16.00 -3.00,27.50t-24.00,11.50l-614.00,0.00 q-16.00,0.00 -30.50-11.50t-20.50-27.50z" horiz-adv-x="1710" />
<glyph unicode="&#xf02e;" d="M0.00,84.00l0.00,1337.00 q0.00,47.00 34.00,81.00t 81.00,34.00l 1024.00,0.00 q 47.00,0.00 80.50-34.00t 33.50-81.00l0.00-1337.00 q0.00-47.00 -33.50-81.00t-80.50-34.00t-80.00,33.00l-432.00,432.00l-432.00-432.00q-33.00-33.00 -80.00-33.00t-81.00,34.00t-34.00,81.00z" horiz-adv-x="1253" />
<glyph unicode="&#xf02f;" d="M0.00,39.00l0.00,346.00 q0.00,47.00 18.50,89.00t 50.00,73.00t 73.50,49.00t 89.00,18.00l 1383.00,0.00 q 47.00,0.00 89.00-18.00t 72.50-49.00t 49.00-73.00t 18.50-89.00l0.00-346.00 q0.00-39.00 -39.00-39.00l-1765.00,0.00 q-39.00,0.00 -39.00,39.00zM 268.00,193.00q0.00-16.00 11.50-26.50t 27.50-10.50l 1229.00,0.00 q 16.00,0.00 27.50,10.00t 11.50,27.00l0.00,38.00 q0.00,16.00 -11.50,27.50t-27.50,11.50l-1229.00,0.00 q-16.00,0.00 -27.50-11.00t-11.50-28.00l0.00-38.00  zM 307.00,729.00l0.00,731.00 q0.00,31.00 22.50,53.50t 55.50,22.50l 651.00,0.00 l0.00-383.00 q0.00-49.00 34.00-83.00t 81.00-34.00l 385.00,0.00 l0.00-307.00 l-1229.00,0.00 zM 1151.00,1153.00l0.00,383.00 l 385.00-383.00l-385.00,0.00 z" horiz-adv-x="1843" />
<glyph unicode="&#xf030;" d="M0.00,115.00l0.00,1075.00 q0.00,47.00 34.00,82.00t 81.00,35.00l 366.00,0.00 l 58.00,125.00q 18.00,43.00 66.00,73.50t 95.00,30.50l 443.00,0.00 q 47.00,0.00 95.00-30.50t 67.00-73.50l 57.00-125.00l 367.00,0.00 q 47.00,0.00 80.50-35.00t 33.50-82.00l0.00-1075.00 q0.00-47.00 -33.50-81.00t-80.50-34.00l-1614.00,0.00 q-47.00,0.00 -81.00,34.00t-34.00,81.00zM 442.00,653.00q0.00-100.00 38.00-187.00t 102.50-152.50t 153.00-103.50t 186.50-38.00t 186.00,38.00 t 152.50,103.50t 102.50,152.50t 38.00,187.00q0.00,98.00 -38.00,186.50t-102.50,153.00t-152.50,102.50t-186.00,38.00t-186.50-38.00t-153.00-102.50t-102.50-152.50t-38.00-187.00zM 596.00,653.00q0.00,68.00 25.50,127.50t 69.50,103.50t 103.50,69.50t 127.50,25.50t 127.00-25.50t 103.00-69.50t 69.50-103.50t 25.50-127.50t-25.50-127.00t-69.50-104.00 t-103.50-70.50t-126.50-25.50q-68.00,0.00 -127.50,25.50t-103.50,70.50t-69.50,104.50t-25.50,126.50z" horiz-adv-x="1843" />
<glyph unicode="&#xf031;" d="M0.00,0.00l 2.00,80.00q 10.00,4.00 29.50,8.00t 48.50,8.00q 92.00,18.00 108.00,33.00q 16.00,10.00 50.00,68.00l 233.00,614.00l 277.00,725.00l 73.00,0.00 l 53.00,0.00 l 11.00-20.00l 202.00-482.00q 33.00-78.00 64.00-151.50t 59.00-145.50q 29.00-72.00 52.50-130.00t 42.50-103.00q 12.00-29.00 28.50-70.00t 36.50-94.00q 23.00-66.00 64.00-150.00q 25.00-49.00 34.00-57.00q 20.00-18.00 68.00-24.00q 25.00-2.00 49.50-9.50t 52.50-17.50 q 6.00-37.00 7.00-55.00l0.00-10.50 t-3.00-16.50q-43.00,0.00 -90.00,2.00t-98.00,6.00q-53.00,4.00 -99.00,6.00t-87.00,2.00l-80.00,0.00 t-53.00-2.00l-199.00-10.00l-57.00-2.00q0.00,20.00 1.00,39.50t 3.00,38.50l 129.00,26.00q 57.00,14.00 67.00,25.00q 12.00,8.00 13.00,27.00q0.00,14.00 -7.00,30.00l-47.00,115.00l-90.00,227.00l-446.00,2.00q-12.00-29.00 -37.00-96.00t-66.00-178.00q-23.00-63.00 -22.00-84.00q0.00-27.00 16.00-43.00q 14.00-10.00 40.00-17.50t 63.00-13.50 q 14.00-4.00 84.00-12.00l0.00-59.00 q0.00-16.00 -2.00-27.00q-35.00,0.00 -121.00,5.00t-224.00,16.00l-49.00-9.00q-43.00-8.00 -83.00-11.00t-81.00-3.00l-20.00,0.00 zM 549.00,655.00q 135.00-2.00 216.00-4.00t 105.00,0.00l 29.00,2.00q-18.00,51.00 -40.50,111.50t-51.50,130.50t-51.50,122.00t-38.50,87.00z" horiz-adv-x="1644" />
<glyph unicode="&#xf032;" d="M0.00,0.00l 2.00,94.00q 27.00,6.00 68.00,12.00q 39.00,6.00 69.50,13.50t 55.50,17.50q 8.00,14.00 13.00,26.50t 7.00,24.50q 6.00,33.00 8.00,81.00t 2.00,112.00l-2.00,498.00q-2.00,39.00 -3.00,139.00t-5.00,266.00q-4.00,88.00 -12.00,109.00q-4.00,8.00 -13.00,10.00q-20.00,14.00 -69.00,16.00q-23.00,0.00 -115.00,13.00l-4.00,84.00l 262.00,6.00l 383.00,12.00l 45.00,0.00 q 8.00,2.00 15.50,2.00l 13.50,0.00 t 21.50-1.00t 39.50-1.00l 76.00,0.00 q 92.00,0.00 193.00-27.00q 18.00-4.00 42.50-13.00 t 53.50-26.00q 63.00-31.00 104.00-75.00q 45.00-47.00 66.00-105.00q 10.00-29.00 15.00-58.50t 5.00-62.50q0.00-72.00 -32.00-129.00q-31.00-57.00 -95.00-104.00q-16.00-12.00 -54.00-30.50t-97.00-47.50q 178.00-41.00 268.00-145.00q 92.00-104.00 92.00-236.00q0.00-72.00 -28.00-162.00q-23.00-66.00 -72.00-116.00q-66.00-72.00 -141.00-109.00q-78.00-35.00 -205.00-59.00q-70.00-12.00 -199.00-11.00l-199.00,5.00 q-63.00,2.00 -138.00-2.50t-163.00-10.50q-25.00-2.00 -93.00-4.00t-181.00-6.00zM 537.00,1419.00q0.00-12.00 1.00-31.50t 3.00-44.50q 2.00-51.00 4.00-119.50t0.00-158.50l0.00-98.00 l0.00-78.00 q 25.00-4.00 52.50-6.00t 57.50-2.00q 176.00,0.00 267.00,65.00q 90.00,66.00 90.00,225.00q0.00,113.00 -86.00,187.00q-84.00,76.00 -258.00,76.00q-53.00,0.00 -131.00-15.00zM 545.00,457.00l 4.00-271.00q0.00-16.00 10.00-43.00q 74.00-33.00 141.00-32.00 q 131.00,0.00 220.00,41.00q 82.00,39.00 122.00,112.00q 18.00,37.00 28.50,82.00t 10.50,100.00q0.00,113.00 -43.00,181.00q-59.00,94.00 -141.00,125.00q-80.00,33.00 -250.00,32.00q-37.00,0.00 -61.50-3.00t-40.50-7.00l0.00-143.00 l0.00-174.00 z" horiz-adv-x="1419" />
<glyph unicode="&#xf033;" d="M0.00,0.00l 18.00,84.00q 12.00,4.00 32.00,9.00t 46.00,11.00q 41.00,10.00 71.00,19.50t 50.00,19.50q 29.00,39.00 41.00,103.00l 29.00,137.00l 57.00,268.00l 12.00,64.00q 23.00,119.00 41.50,178.00t 18.50,63.00l 30.00,156.00l 17.00,64.00l 22.00,135.00l 9.00,49.00l0.00,39.00 q-45.00,23.00 -148.00,28.00q-14.00,0.00 -23.50,1.50t-17.50,1.50l 21.00,104.00l 325.00-14.00q 31.00-2.00 49.50-2.00l 26.50,0.00 q 35.00,0.00 89.00,2.00t 132.00,6.00q 41.00,4.00 68.50,6.00t 38.50,2.00 q-2.00-10.00 -3.00-19.50t-3.00-19.50q-4.00-10.00 -7.50-22.50t-7.50-28.50q-49.00-16.00 -110.00-31.00q-66.00-16.00 -105.00-31.00q-12.00-33.00 -24.00-88.00q-6.00-25.00 -9.50-45.00t-5.50-37.00q-23.00-100.00 -40.00-175.50t-27.00-129.50l-64.00-311.00l-39.00-158.00l-43.00-235.00l-14.00-45.00l0.00-10.50 t 2.00-16.50q 35.00-8.00 64.50-13.00t 58.50-9.00q 4.00,0.00 21.50-2.50 l 45.50-6.50q-2.00-18.00 -3.00-32.50t-3.00-26.50q-2.00-6.00 -4.00-16.50t-6.00-22.50q-8.00,0.00 -14.00-1.00t-10.00-1.00q-18.00-2.00 -28.50-2.00l-14.50,0.00 l-11.50,0.00 t-17.50,4.00q-8.00,0.00 -45.00,4.00t-105.00,12.00l-202.00,2.00q-61.00,0.00 -181.00-12.00q-39.00-4.00 -63.50-6.00t-36.50-2.00z" horiz-adv-x="1054" />
<glyph unicode="&#xf034;" d="M0.00,1151.00q 14.00,37.00 34.50,110.50t 45.50,184.50q 8.00,33.00 13.00,54.50t 9.00,31.50l 58.00,0.00 q 4.00-6.00 6.00-10.00t 4.00-9.00q 29.00-57.00 41.00-71.00q 16.00-4.00 129.00-4.00q 35.00,0.00 66.50,1.00t 60.50,1.00l 20.00,2.00l 113.00,2.00l 213.00-2.00l 289.00,0.00 l 55.00,10.00q 10.00,8.00 27.00,53.00q 2.00,6.00 4.00,12.50t 6.00,16.50l 43.00,2.00l 10.50,0.00 t 16.50-2.00q 2.00-39.00 1.00-97.50t 1.00-138.50l0.00-100.00 l0.00-57.00 q0.00-14.00 -1.00-27.50t-3.00-23.50 q-20.00-8.00 -37.00-11.50t-31.00-7.50q-27.00,51.00 -53.00,129.00q-29.00,82.00 -37.00,92.00q-12.00,14.00 -27.00,21.00q-10.00,4.00 -60.00,4.00l-138.00,0.00 l-31.00,0.00 t-35.00-4.00q-6.00-43.00 -6.00-72.00l 2.00-151.00l0.00-334.00 l 2.00-359.00l0.00-147.00 q0.00-72.00 10.00-117.00q 8.00-4.00 21.50-8.00t 34.50-8.00q 4.00,0.00 21.00-4.00t 50.00-13.00q 27.00-10.00 49.00-18.00q 4.00-20.00 4.00-33.50l0.00-17.50 l0.00-11.50 t-2.00-17.50l-34.00,0.00 q-47.00,0.00 -88.00,2.00 t-76.00,6.00t-95.50,6.00t-148.50,2.00q-16.00,0.00 -57.00-4.00t-109.00-10.00q-29.00-2.00 -45.00-3.00t-24.00-1.00q0.00,10.00 -1.50,16.50t-1.50,10.50l-2.00,24.00l0.00,10.00 q 18.00,31.00 80.00,50.00q 94.00,27.00 135.00,49.00q 4.00,10.00 6.50,25.50t 4.50,31.50q 4.00,68.00 6.00,176.50t0.00,255.50l-4.00,428.00q-2.00,90.00 -2.00,142.50t-4.00,72.50q0.00,8.00 -7.00,15.00q-4.00,6.00 -12.00,6.00q-16.00,4.00 -63.00,4.00l-127.00,0.00 q-90.00,0.00 -119.00-21.00 q-41.00-29.00 -121.00-153.00q-23.00-35.00 -35.00-35.00q-23.00,12.00 -36.00,23.50t-19.00,19.50zM 1383.00,1305.50q-5.00,13.50 14.00,33.50l 184.00,185.00q 14.00,12.00 33.00,12.00q 14.00,0.00 31.00-12.00l 184.00-185.00q 18.00-20.00 13.00-33.50t-34.00-13.50l-118.00,0.00 l0.00-1048.00 l 118.00,0.00 q 29.00,0.00 34.00-13.50t-13.00-31.50l-184.00-187.00q-16.00-12.00 -33.00-12.00q-16.00,0.00 -31.00,12.00l-184.00,187.00 q-18.00,18.00 -13.00,31.50t 31.00,13.50l 121.00,0.00 l0.00,1048.00 l-121.00,0.00 q-27.00,0.00 -32.00,13.50z" horiz-adv-x="1843" />
<glyph unicode="&#xf035;" d="M0.00,233.00q0.00,18.00 12.00,31.00l 187.00,185.00q 18.00,20.00 31.50,14.00t 13.50-33.00l0.00-121.00 l 1048.00,0.00 l0.00,121.00 q0.00,27.00 13.50,33.00t 33.50-14.00l 185.00-185.00q 12.00-12.00 12.00-31.00q0.00-18.00 -12.00-30.00l-185.00-187.00q-20.00-18.00 -33.50-13.00t-13.50,34.00l0.00,119.00 l-1048.00,0.00 l0.00-119.00 q0.00-29.00 -13.50-34.00t-31.50,13.00l-187.00,187.00q-12.00,12.00 -12.00,30.00zM0.00,1233.00q 14.00,29.00 33.50,87.00 t 44.50,146.00q 6.00,27.00 11.00,43.50t 9.00,26.50l 56.00,0.00 q 8.00-12.00 10.00-14.00q 27.00-47.00 37.00-58.00q 2.00,0.00 35.50-1.00t 77.50-1.00l 90.50,0.00 l 74.50,0.00 l 123.00,0.00 l 19.00,2.00l 108.00,0.00 l 203.00,0.00 l 416.00,0.00 l 53.00,6.00q 12.00,10.00 24.00,46.00l 4.50,9.00l 6.50,13.00l 39.00,0.00 l 28.00,0.00 l0.00-188.00 l0.00-80.00 l0.00-45.00 q0.00-12.00 -1.00-21.50t-3.00-19.50q-33.00-10.00 -63.00-15.00q-25.00,37.00 -52.00,103.00q-27.00,59.00 -34.00,74.00q-12.00,10.00 -27.00,14.00q-6.00,2.00 -42.00,3.00 t-85.00,1.00l-103.50,0.00 l-97.50,0.00 l-28.50,0.00 t-34.50-2.00q-2.00-18.00 -3.00-32.50t-1.00-24.50l 4.00-445.00l-2.00-119.00q0.00-61.00 12.00-92.00q 12.00-6.00 53.00-12.00q 4.00,0.00 20.50-4.00t 45.50-10.00q 14.00-4.00 26.50-7.50t 22.50-7.50q 2.00-16.00 3.00-25.50t 1.00-13.50t-1.00-10.00t-1.00-14.00l-33.00,0.00 q-94.00,0.00 -157.00,6.00q-66.00,6.00 -236.00,6.00q-14.00,0.00 -53.00-3.00t-105.00-7.00q-27.00-2.00 -43.00-3.00 t-24.00-1.00q0.00,16.00 -2.00,20.00l0.00,21.00 l0.00,8.00 q 20.00,27.00 73.00,39.00q 90.00,20.00 132.00,41.00q 4.00,8.00 6.00,19.00t 4.00,26.00q0.00,18.00 1.00,70.50t 1.00,120.00t-1.00,142.00t-2.00,139.00t-2.00,107.50t-1.00,47.00q0.00,8.00 -6.00,13.00q-2.00,2.00 -13.00,6.00q-14.00,2.00 -59.00,2.00l-123.00,0.00 q-20.00,0.00 -62.00-1.00t-85.00-2.00t-78.00-4.00t-41.00-7.00q-41.00-25.00 -117.00-123.00q-20.00-29.00 -33.00-29.00q-23.00,10.00 -35.00,19.50t-18.00,15.50z" horiz-adv-x="1536" />
<glyph unicode="&#xf036;" d="M0.00,78.00l0.00,115.00 q0.00,31.00 22.50,53.00t 55.50,22.00l 1689.00,0.00 q 31.00,0.00 53.50-22.50t 22.50-52.50l0.00-115.00 q0.00-33.00 -22.50-55.50t-53.50-22.50l-1689.00,0.00 q-33.00,0.00 -55.50,22.50t-22.50,55.50zM0.00,500.00l0.00,114.00 q0.00,33.00 22.50,55.50t 55.50,22.50l 1075.00,0.00 q 31.00,0.00 53.50-22.50t 22.50-55.50l0.00-114.00 q0.00-33.00 -22.50-55.50t-53.50-22.50l-1075.00,0.00  q-33.00,0.00 -55.50,22.50t-22.50,55.50zM0.00,922.00l0.00,114.00 q0.00,33.00 22.50,55.50t 55.50,22.50l 1536.00,0.00 q 31.00,0.00 53.50-22.50t 22.50-55.50l0.00-114.00 q0.00-33.00 -22.50-54.50t-53.50-21.50l-1536.00,0.00 q-33.00,0.00 -55.50,21.50t-22.50,54.50zM0.00,1343.00l0.00,117.00 q0.00,31.00 22.50,53.50t 55.50,22.50l 921.00,0.00 q 31.00,0.00 53.50-22.50t 22.50-53.50l0.00-117.00 q0.00-31.00 -22.50-53.00 t-53.50-22.00l-921.00,0.00 q-33.00,0.00 -55.50,22.50t-22.50,52.50z" horiz-adv-x="1843" />
<glyph unicode="&#xf037;" d="M0.00,78.00l0.00,115.00 q0.00,31.00 22.50,53.00t 55.50,22.00l 1689.00,0.00 q 31.00,0.00 53.50-22.50t 22.50-52.50l0.00-115.00 q0.00-33.00 -22.50-55.50t-53.50-22.50l-1689.00,0.00 q-33.00,0.00 -55.50,22.50t-22.50,55.50zM 78.00,922.00l0.00,114.00 q0.00,33.00 21.50,55.50t 54.50,22.50l 1536.00,0.00 q 33.00,0.00 55.00-22.50t 22.00-55.50l0.00-114.00 q0.00-33.00 -22.50-54.50t-54.50-21.50l-1536.00,0.00  q-33.00,0.00 -54.50,21.50t-21.50,54.50zM 307.00,500.00l0.00,114.00 q0.00,33.00 22.50,55.50t 55.50,22.50l 1075.00,0.00 q 31.00,0.00 53.50-22.50t 22.50-55.50l0.00-114.00 q0.00-33.00 -22.50-55.50t-53.50-22.50l-1075.00,0.00 q-33.00,0.00 -55.50,22.50t-22.50,55.50zM 385.00,1343.00l0.00,117.00 q0.00,31.00 21.50,53.50t 54.50,22.50l 921.00,0.00 q 33.00,0.00 55.50-22.50t 22.50-53.50l0.00-117.00  q0.00-31.00 -22.50-53.00t-55.50-22.00l-921.00,0.00 q-33.00,0.00 -54.50,22.50t-21.50,52.50z" horiz-adv-x="1843" />
<glyph unicode="&#xf038;" d="M0.00,78.00l0.00,115.00 q0.00,31.00 22.50,53.00t 55.50,22.00l 1689.00,0.00 q 31.00,0.00 53.50-22.50t 22.50-52.50l0.00-115.00 q0.00-33.00 -22.50-55.50t-53.50-22.50l-1689.00,0.00 q-33.00,0.00 -55.50,22.50t-22.50,55.50zM 154.00,922.00l0.00,114.00 q0.00,33.00 22.50,55.50t 54.50,22.50l 1536.00,0.00 q 31.00,0.00 53.50-22.50t 22.50-55.50l0.00-114.00 q0.00-33.00 -22.50-54.50t-53.50-21.50l-1536.00,0.00  q-33.00,0.00 -55.00,21.50t-22.00,54.50zM 614.00,500.00l0.00,114.00 q0.00,33.00 22.50,55.50t 55.50,22.50l 1075.00,0.00 q 31.00,0.00 53.50-22.50t 22.50-55.50l0.00-114.00 q0.00-33.00 -22.50-55.50t-53.50-22.50l-1075.00,0.00 q-33.00,0.00 -55.50,22.50t-22.50,55.50zM 768.00,1343.00l0.00,117.00 q0.00,31.00 22.50,53.50t 55.50,22.50l 921.00,0.00 q 31.00,0.00 53.50-22.50t 22.50-53.50l0.00-117.00 q0.00-31.00 -22.50-53.00 t-53.50-22.00l-921.00,0.00 q-33.00,0.00 -55.50,22.50t-22.50,52.50z" horiz-adv-x="1843" />
<glyph unicode="&#xf039;" d="M0.00,78.00l0.00,115.00 q0.00,31.00 22.50,53.00t 55.50,22.00l 1689.00,0.00 q 31.00,0.00 53.50-22.50t 22.50-52.50l0.00-115.00 q0.00-33.00 -22.50-55.50t-53.50-22.50l-1689.00,0.00 q-33.00,0.00 -55.50,22.50t-22.50,55.50zM0.00,500.00l0.00,114.00 q0.00,33.00 22.50,55.50t 55.50,22.50l 1689.00,0.00 q 31.00,0.00 53.50-22.50t 22.50-55.50l0.00-114.00 q0.00-33.00 -22.50-55.50t-53.50-22.50l-1689.00,0.00  q-33.00,0.00 -55.50,22.50t-22.50,55.50zM0.00,922.00l0.00,114.00 q0.00,33.00 22.50,55.50t 55.50,22.50l 1689.00,0.00 q 31.00,0.00 53.50-22.50t 22.50-55.50l0.00-114.00 q0.00-33.00 -22.50-54.50t-53.50-21.50l-1689.00,0.00 q-33.00,0.00 -55.50,21.50t-22.50,54.50zM0.00,1343.00l0.00,117.00 q0.00,31.00 22.50,53.50t 55.50,22.50l 1689.00,0.00 q 31.00,0.00 53.50-22.50t 22.50-53.50l0.00-117.00  q0.00-31.00 -22.50-53.00t-53.50-22.00l-1689.00,0.00 q-33.00,0.00 -55.50,22.50t-22.50,52.50z" horiz-adv-x="1843" />
<glyph unicode="&#xf03a;" d="M0.00,78.00l0.00,115.00 q0.00,31.00 22.50,53.00t 55.50,22.00l 153.00,0.00 q 31.00,0.00 53.50-22.50t 22.50-52.50l0.00-115.00 q0.00-33.00 -22.50-55.50t-53.50-22.50l-153.00,0.00 q-33.00,0.00 -55.50,22.50t-22.50,55.50zM0.00,500.00l0.00,114.00 q0.00,33.00 22.50,55.50t 55.50,22.50l 153.00,0.00 q 31.00,0.00 53.50-22.50t 22.50-55.50l0.00-114.00 q0.00-33.00 -22.50-55.50t-53.50-22.50l-153.00,0.00  q-33.00,0.00 -55.50,22.50t-22.50,55.50zM0.00,922.00l0.00,114.00 q0.00,33.00 22.50,55.50t 55.50,22.50l 153.00,0.00 q 31.00,0.00 53.50-22.50t 22.50-55.50l0.00-114.00 q0.00-33.00 -22.50-54.50t-53.50-21.50l-153.00,0.00 q-33.00,0.00 -55.50,21.50t-22.50,54.50zM0.00,1343.00l0.00,117.00 q0.00,31.00 22.50,53.50t 55.50,22.50l 153.00,0.00 q 31.00,0.00 53.50-22.50t 22.50-53.50l0.00-117.00 q0.00-31.00 -22.50-53.00 t-53.50-22.00l-153.00,0.00 q-33.00,0.00 -55.50,22.50t-22.50,52.50zM 461.00,78.00l0.00,115.00 q0.00,31.00 22.50,53.00t 55.50,22.00l 1228.00,0.00 q 31.00,0.00 53.50-22.50t 22.50-52.50l0.00-115.00 q0.00-33.00 -22.50-55.50t-53.50-22.50l-1228.00,0.00 q-33.00,0.00 -55.50,22.50t-22.50,55.50zM 461.00,500.00l0.00,114.00 q0.00,33.00 22.50,55.50t 55.50,22.50l 1228.00,0.00 q 31.00,0.00 53.50-22.50t 22.50-55.50l0.00-114.00  q0.00-33.00 -22.50-55.50t-53.50-22.50l-1228.00,0.00 q-33.00,0.00 -55.50,22.50t-22.50,55.50zM 461.00,922.00l0.00,114.00 q0.00,33.00 22.50,55.50t 55.50,22.50l 1228.00,0.00 q 31.00,0.00 53.50-22.50t 22.50-55.50l0.00-114.00 q0.00-33.00 -22.50-54.50t-53.50-21.50l-1228.00,0.00 q-33.00,0.00 -55.50,21.50t-22.50,54.50zM 461.00,1343.00l0.00,117.00 q0.00,31.00 22.50,53.50t 55.50,22.50l 1228.00,0.00  q 31.00,0.00 53.50-22.50t 22.50-53.50l0.00-117.00 q0.00-31.00 -22.50-53.00t-53.50-22.00l-1228.00,0.00 q-33.00,0.00 -55.50,22.50t-22.50,52.50z" horiz-adv-x="1843" />
<glyph unicode="&#xf03b;" d="M0.00,756.00l0.00,75.00 q0.00,39.00 39.00,39.00l 213.00,0.00 l0.00,154.00 q0.00,31.00 16.50,37.00t 38.50-17.00l 215.00-215.00q 16.00-16.00 17.00-36.00q0.00-18.00 -17.00-35.00l-215.00-215.00q-23.00-23.00 -39.00-17.00t-16.00,39.00l0.00,152.00 l-213.00,0.00 q-39.00,0.00 -39.00,39.00zM 614.00,39.00l0.00,1458.00 q0.00,39.00 39.00,39.00l 76.00,0.00 q 39.00,0.00 39.00-39.00l0.00-1458.00 q0.00-39.00 -39.00-39.00l-76.00,0.00 q-39.00,0.00 -39.00,39.00zM 922.00,78.00l0.00,115.00 q0.00,31.00 22.50,53.00t 54.50,22.00 l 768.00,0.00 q 31.00,0.00 53.50-22.50t 22.50-52.50l0.00-115.00 q0.00-33.00 -22.50-55.50t-53.50-22.50l-768.00,0.00 q-33.00,0.00 -55.00,22.50t-22.00,55.50zM 922.00,500.00l0.00,114.00 q0.00,33.00 22.50,55.50t 54.50,22.50l 615.00,0.00 q 31.00,0.00 53.50-22.50t 22.50-55.50l0.00-114.00 q0.00-33.00 -22.50-55.50t-53.50-22.50l-615.00,0.00 q-33.00,0.00 -55.00,22.50t-22.00,55.50zM 922.00,922.00l0.00,114.00  q0.00,33.00 22.50,55.50t 54.50,22.50l 691.00,0.00 q 33.00,0.00 55.00-22.50t 22.00-55.50l0.00-114.00 q0.00-33.00 -22.50-54.50t-54.50-21.50l-691.00,0.00 q-33.00,0.00 -55.00,21.50t-22.00,54.50zM 922.00,1343.00l0.00,117.00 q0.00,31.00 22.50,53.50t 54.50,22.50l 537.00,0.00 q 33.00,0.00 55.50-22.50t 22.50-53.50l0.00-117.00 q0.00-31.00 -22.50-53.00t-55.50-22.00l-537.00,0.00 q-33.00,0.00 -55.00,22.50t-22.00,52.50z" horiz-adv-x="1843" />
<glyph unicode="&#xf03c;" d="M0.00,78.00l0.00,115.00 q0.00,31.00 22.50,53.00t 53.50,22.00l 768.00,0.00 q 33.00,0.00 55.50-22.50t 22.50-52.50l0.00-115.00 q0.00-33.00 -22.50-55.50t-55.50-22.50l-768.00,0.00 q-31.00,0.00 -53.50,22.50t-22.50,55.50zM0.00,500.00l0.00,114.00 q0.00,33.00 22.50,55.50t 53.50,22.50l 614.00,0.00 q 33.00,0.00 55.50-22.50t 22.50-55.50l0.00-114.00 q0.00-33.00 -22.50-55.50t-55.50-22.50l-614.00,0.00  q-31.00,0.00 -53.50,22.50t-22.50,55.50zM0.00,922.00l0.00,114.00 q0.00,33.00 22.50,55.50t 53.50,22.50l 692.00,0.00 q 31.00,0.00 53.50-22.50t 22.50-55.50l0.00-114.00 q0.00-33.00 -22.50-54.50t-53.50-21.50l-692.00,0.00 q-31.00,0.00 -53.50,21.50t-22.50,54.50zM0.00,1343.00l0.00,117.00 q0.00,31.00 22.50,53.50t 53.50,22.50l 538.00,0.00 q 31.00,0.00 53.50-22.50t 22.50-53.50l0.00-117.00 q0.00-31.00 -22.50-53.00 t-53.50-22.00l-538.00,0.00 q-31.00,0.00 -53.50,22.50t-22.50,52.50zM 1075.00,39.00l0.00,1458.00 q0.00,39.00 39.00,39.00l 76.00,0.00 q 16.00,0.00 27.50-11.50t 11.50-27.50l0.00-1458.00 q0.00-16.00 -11.50-27.50t-27.50-11.50l-76.00,0.00 q-39.00,0.00 -39.00,39.00zM 1305.00,743.00q0.00,16.00 14.00,35.00l 217.00,215.00q 23.00,23.00 38.00,17.00t 15.00-39.00l0.00-152.00 l 215.00,0.00 q 16.00,0.00 27.50-11.00t 11.50-28.00l0.00-75.00 q0.00-16.00 -11.00-27.50 t-28.00-11.50l-215.00,0.00 l0.00-154.00 q0.00-31.00 -15.00-38.00t-38.00,15.00l-217.00,218.00q-14.00,18.00 -14.00,36.00z" horiz-adv-x="1843" />
<glyph unicode="&#xf03d;" d="M0.00,324.00l0.00,768.00 q0.00,47.00 18.50,89.00t 50.00,72.50t 73.50,49.00t 89.00,18.50l 768.00,0.00 q 47.00,0.00 89.00-18.50t 73.00-49.00t 49.50-72.50t 18.50-89.00l0.00-240.00 l 483.00,471.00q 23.00,23.00 55.00,23.00q 13.00-1.00 29.00-7.00q 47.00-20.00 47.00-69.00l0.00-1127.00 q0.00-49.00 -47.00-69.00q-16.00-6.00 -29.00-6.00q-33.00,0.00 -55.00,22.00l-483.00,471.00l0.00-237.00 q0.00-47.00 -18.50-89.00t-49.50-74.00t-72.50-50.50 t-89.50-18.50l-768.00,0.00 q-47.00,0.00 -89.00,18.50t-73.50,50.50t-50.00,73.50t-18.50,89.50z" horiz-adv-x="1843" />
<glyph unicode="&#xf03e;" d="M0.00,115.00l0.00,1306.00 q0.00,47.00 34.00,81.00t 81.00,34.00l 1614.00,0.00 q 47.00,0.00 80.50-34.00t 33.50-81.00l0.00-1306.00 q0.00-47.00 -33.50-81.00t-80.50-34.00l-1614.00,0.00 q-47.00,0.00 -81.00,34.00t-34.00,81.00zM 154.00,154.00l 1536.00,0.00 l0.00,1228.00 l-1536.00,0.00 l0.00-1228.00 zM 307.00,307.00l0.00,105.00 l 277.00,360.00l 188.00-156.00l 354.00,537.00l 410.00-424.00l0.00-422.00 l-1229.00,0.00 zM 307.00,1073.00q0.00,66.00 45.00,111.00t 111.00,45.00q 63.00,0.00 108.00-45.00 t 45.00-111.00q0.00-63.00 -45.00-108.00t-108.00-45.00q-66.00,0.00 -111.00,45.00t-45.00,108.00z" horiz-adv-x="1843" />
<glyph unicode="&#xf040;" d="M0.00,0.00l 137.00,418.00l 867.00,866.00l 280.00-280.00l-866.00-867.00zM 287.00,407.50q0.00-12.50 10.00-22.50q 8.00-8.00 22.00-8.00q 12.00,0.00 21.00,8.00l 690.00,690.00q 20.00,20.00 0.00,43.00q-10.00,10.00 -22.50,10.00t-20.50-10.00l-690.00-688.00q-10.00-10.00 -10.00-22.50zM 1102.00,1382.00l 119.00,119.00q 35.00,35.00 84.00,35.00t 84.00-35.00l 57.00-55.00l 55.00-57.00q 35.00-35.00 35.00-84.50t-35.00-83.50l-119.00-119.00z " horiz-adv-x="1536" />
<glyph unicode="&#xf041;" d="M0.00,1001.00q0.00,117.00 44.00,220.50t 121.00,180.50t 180.50,121.00t 219.50,44.00q 117.00,0.00 219.50-44.00t 179.00-121.00t 120.50-180.50t 44.00-220.50q0.00-84.00 -24.50-159.50t-65.50-143.50l-379.00-661.00q-41.00-68.00 -95.00-68.00t-93.00,68.00l-381.00,663.00q-41.00,68.00 -65.50,143.00t-24.50,158.00zM 285.00,1001.00q0.00-57.00 21.50-108.00t 60.50-89.00t 89.00-59.50 t 109.00-21.50q 57.00,0.00 108.50,21.50t 89.50,59.50t 59.50,89.00t 21.50,108.00t-21.50,108.50t-59.50,90.50t-89.00,60.50t-109.00,21.50q-59.00,0.00 -109.00-21.50t-89.00-60.50t-60.50-90.00t-21.50-109.00z" horiz-adv-x="1128" />
<glyph unicode="&#xf042;" d="M0.00,768.00q0.00,166.00 62.50,311.50t 171.00,254.00t 254.00,171.00t 311.50,62.50t 311.00-62.50t 254.00-171.00t 171.00-254.00t 62.00-311.50t-62.00-311.50t-171.00-254.00t-254.00-171.00t-311.00-62.50t-311.50,62.50t-254.00,171.00t-171.00,254.00t-62.50,311.50zM 240.00,768.00q0.00-117.00 44.00-218.00t 119.50-177.00t 177.00-120.00t 218.50-44.00l0.00,1118.00 q-117.00,0.00 -218.50-44.00 t-177.00-120.00t-119.50-177.00t-44.00-218.00z" horiz-adv-x="1597" />
<glyph unicode="&#xf043;" d="M0.00,535.00q0.00,86.00 23.50,161.50t 66.50,141.50q 20.00,33.00 69.50,99.50t 108.00,154.50t 113.50,193.50t 90.00,217.50q 10.00,35.00 37.00,51.50t 57.00,12.50q 31.00,4.00 57.50-12.50t 36.50-51.50q 33.00-113.00 89.50-218.00t 115.00-193.00t 107.50-154.50t 69.00-99.50q 43.00-66.00 66.50-141.50t 23.50-161.50q0.00-117.00 -44.00-220.50t-120.50-180.50t-180.00-121.00 t-220.50-44.00t-220.00,44.00t-180.00,121.00t-121.00,180.50t-44.00,220.50zM 248.00,410.00q0.00-59.00 41.00-100.50t 100.00-41.50t 100.00,41.00t 41.00,101.00q0.00,43.00 -22.00,75.00q-6.00,8.00 -18.50,24.50t-26.50,39.00t-28.50,48.50t-22.50,54.00q-4.00,20.00 -23.00,17.00q-18.00,4.00 -24.00-17.00q-8.00-29.00 -21.50-54.50t-28.00-48.00t-27.00-38.50t-18.50-25.00q-23.00-33.00 -22.00-75.00z" horiz-adv-x="1130" />
<glyph unicode="&#xf044;" d="M0.00,307.00l0.00,922.00 q0.00,63.00 24.50,119.50t 65.50,97.50t 97.50,65.50t 119.50,24.50l 1075.00,0.00 q 4.00,0.00 10.50-1.00t 10.50-1.00l-191.00-191.00l-905.00,0.00 q-47.00,0.00 -80.50-33.50t-33.50-80.50l0.00-922.00 q0.00-47.00 33.50-80.50t 80.50-33.50l 1075.00,0.00 q 47.00,0.00 81.00,33.50t 34.00,80.50l0.00,445.00 l 193.00,192.00l0.00-637.00 q0.00-63.00 -25.00-118.50t-67.00-97.50t-97.00-66.50t-119.00-24.50 l-1075.00,0.00 q-63.00,0.00 -119.50,24.50t-97.50,66.50t-65.50,97.50t-24.50,118.50zM 631.00,324.00l 108.00,329.00l 652.00,652.00l 221.00-222.00l-651.00-651.00zM 866.00,629.00q 6.00-8.00 17.00-8.00q 10.00,0.00 16.00,8.00l 512.00,510.00q 18.00,18.00 0.00,35.00q-18.00,16.00 -35.00,0.00l-510.00-510.00q-18.00-18.00 0.00-35.00zM 1501.00,1415.00l 92.00,94.00q 29.00,29.00 68.00,29.00t 65.00-29.00l 46.00-45.00l 45.00-45.00 q 27.00-29.00 27.50-66.50t-27.50-66.50l-95.00-92.00z" horiz-adv-x="1843" />
<glyph unicode="&#xf045;" d="M0.00,307.00l0.00,922.00 q0.00,63.00 24.50,119.50t 65.50,97.50t 97.50,65.50t 119.50,24.50l 836.00,0.00 q-6.00-31.00 -6.00-63.00l0.00-52.00 q-164.00-20.00 -310.00-78.00l-520.00,0.00 q-47.00,0.00 -80.50-33.50t-33.50-80.50l0.00-922.00 q0.00-47.00 33.50-80.50t 80.50-33.50l 1075.00,0.00 q 47.00,0.00 81.00,33.50t 34.00,80.50l0.00,111.00 q 16.00,10.00 31.50,21.50t 32.50,27.50l 129.00,127.00l0.00-287.00 q0.00-63.00 -25.00-118.50 t-67.00-97.50t-97.00-66.50t-119.00-24.50l-1075.00,0.00 q-63.00,0.00 -119.50,24.50t-97.50,66.50t-65.50,97.50t-24.50,118.50zM 385.00,388.50l0.00,37.50 q0.00,166.00 56.50,312.50t 173.00,256.00t 293.50,173.00t 419.00,65.50l0.00,231.00 q0.00,57.00 28.50,69.50t 69.50-28.50l 392.00-391.00q 27.00-25.00 26.00-65.00q0.00-39.00 -26.00-64.00l-392.00-391.00q-41.00-41.00 -69.50-28.50 t-28.50,69.50l0.00,260.00 q-207.00,0.00 -364.50-43.00t-266.00-116.50t-170.00-174.00t-77.50-215.50q-4.00-27.00 -31.00-27.00q-25.00,0.00 -29.00,27.00q-4.00,23.00 -4.00,42.50z" horiz-adv-x="1843" />
<glyph unicode="&#xf046;" d="M0.00,307.00l0.00,922.00 q0.00,63.00 24.50,119.50t 65.50,97.50t 97.50,65.50t 119.50,24.50l 1075.00,0.00 q 27.00,0.00 52.00-6.00l-187.00-187.00l-940.00,0.00 q-47.00,0.00 -80.50-33.50t-33.50-80.50l0.00-922.00 q0.00-47.00 33.50-80.50t 80.50-33.50l 1075.00,0.00 q 47.00,0.00 81.00,33.50t 34.00,80.50l0.00,326.00 l 193.00,192.00l0.00-518.00 q0.00-63.00 -25.00-118.50t-67.00-97.50t-97.00-66.50t-119.00-24.50l-1075.00,0.00  q-63.00,0.00 -119.50,24.50t-97.50,66.50t-65.50,97.50t-24.50,118.50zM 385.00,966.50q0.00,32.50 23.00,55.50l 98.00,98.00q 23.00,23.00 55.50,23.00t 54.50-23.00l 340.00-340.00l 654.00,656.00q 23.00,23.00 56.50,22.50t 55.50-22.50l 99.00-99.00q 23.00-23.00 22.50-55.50t-22.50-54.50l-711.00-711.00l-98.00-98.00q-23.00-23.00 -55.50-23.00t-55.50,23.00l-100.00,98.00l-393.00,395.00 q-23.00,23.00 -23.00,55.50z" horiz-adv-x="1843" />
<glyph unicode="&#xf047;" d="M0.00,768.00q0.00,25.00 18.00,43.00l 256.00,256.00q 27.00,27.00 45.50,19.50t 18.50-46.50l0.00-170.00 l 360.00,0.00 l0.00,359.00 l-172.00,0.00 q-37.00,0.00 -45.00,18.50t 19.00,44.50l 256.00,256.00q 18.00,18.00 43.00,19.00q 25.00,0.00 43.00-19.00l 256.00-256.00q 27.00-27.00 19.50-45.00t-46.50-18.00l-172.00,0.00 l0.00-359.00 l 361.00,0.00 l0.00,170.00 q0.00,39.00 18.00,46.50t 45.00-19.50l 256.00-256.00q 18.00-18.00 18.00-43.00t-18.00-43.00l-256.00-256.00 q-27.00-27.00 -45.00-19.50t-18.00,46.50l0.00,176.00 l-361.00,0.00 l0.00-365.00 l 172.00,0.00 q 39.00,0.00 47.00-18.50t-20.00-44.50l-256.00-256.00q-18.00-18.00 -43.00-19.00q-25.00,0.00 -43.00,19.00l-256.00,256.00q-27.00,27.00 -20.00,45.00t 46.00,18.00l 172.00,0.00 l0.00,365.00 l-360.00,0.00 l0.00-176.00 q0.00-39.00 -18.50-46.50t-45.50,19.50l-256.00,256.00q-18.00,18.00 -18.00,43.00z" horiz-adv-x="1597" />
<glyph unicode="&#xf048;" d="M0.00,76.00q0.00-31.00 22.50-53.50t 53.50-22.50l 153.00,0.00 q 33.00,0.00 55.50,22.50t 22.50,53.50l0.00,1382.00 q0.00,33.00 -22.50,55.50t-55.50,22.50l-153.00,0.00 q-31.00,0.00 -53.50-22.50t-22.50-55.50l0.00-1382.00 zM 307.50,768.00q-0.50,27.00 16.50,43.00l 653.00,707.00q 14.00,18.00 41.00,18.00q 6.00,0.00 22.00-4.00q 35.00-18.00 35.00-59.00l0.00-1412.00 q0.00-41.00 -35.00-57.00q-39.00-14.00 -63.00,14.00l-653.00,705.00 q-16.00,18.00 -16.50,45.00z" horiz-adv-x="1075" />
<glyph unicode="&#xf049;" d="M0.00,76.00q0.00-31.00 22.50-53.50t 53.50-22.50l 153.00,0.00 q 33.00,0.00 55.50,22.50t 22.50,53.50l0.00,1382.00 q0.00,33.00 -22.50,55.50t-55.50,22.50l-153.00,0.00 q-31.00,0.00 -53.50-22.50t-22.50-55.50l0.00-1382.00 zM 307.50,768.00q-0.50,27.00 16.50,43.00l 653.00,707.00q 14.00,18.00 41.00,18.00q 6.00,0.00 22.00-4.00q 35.00-18.00 35.00-59.00l0.00-1412.00 q0.00-41.00 -35.00-57.00q-39.00-14.00 -63.00,14.00l-653.00,705.00 q-16.00,18.00 -16.50,45.00zM 1075.50,768.00q-0.50,27.00 16.50,43.00l 653.00,707.00q 14.00,18.00 41.00,18.00q 6.00,0.00 22.00-4.00q 35.00-18.00 35.00-59.00l0.00-1412.00 q0.00-41.00 -35.00-57.00q-39.00-14.00 -63.00,14.00l-653.00,705.00q-16.00,18.00 -16.50,45.00z" horiz-adv-x="1843" />
<glyph unicode="&#xf04a;" d="M0.00,767.00q0.00,26.00 16.00,44.00l 654.00,707.00q 14.00,18.00 41.00,18.00q 10.00,0.00 22.00-6.00q 35.00-14.00 35.00-57.00l0.00-1412.00 q0.00-41.00 -35.00-57.00q-37.00-16.00 -63.00,14.00l-654.00,705.00q-16.00,18.00 -16.00,44.00zM 768.00,767.00q0.00,26.00 16.00,44.00l 654.00,707.00q 14.00,18.00 41.00,18.00q 10.00,0.00 22.00-6.00q 35.00-14.00 35.00-57.00l0.00-1412.00 q0.00-41.00 -35.00-57.00q-37.00-16.00 -63.00,14.00l-654.00,705.00q-16.00,18.00 -16.00,44.00z" horiz-adv-x="1536" />
<glyph unicode="&#xf04b;" d="M0.00,70.00l0.00,1396.00 q0.00,39.00 35.00,60.00q 37.00,23.00 69.00,0.00l 1211.00-697.00q 35.00-25.00 35.00-61.00q0.00-37.00 -35.00-61.00l-1211.00-697.00q-16.00-10.00 -34.00-10.00t-35.00,10.00q-35.00,20.00 -35.00,60.00z" horiz-adv-x="1349" />
<glyph unicode="&#xf04c;" d="M0.00,70.00l0.00,1396.00 q0.00,29.00 20.50,49.50t 49.50,20.50l 489.00,0.00 q 29.00,0.00 49.50-20.50t 20.50-49.50l0.00-1396.00 q0.00-29.00 -20.50-49.50t-49.50-20.50l-489.00,0.00 q-29.00,0.00 -49.50,20.50t-20.50,49.50zM 907.00,70.00l0.00,1396.00 q0.00,29.00 20.50,49.50t 49.50,20.50l 489.00,0.00 q 29.00,0.00 49.50-20.50t 20.50-49.50l0.00-1396.00 q0.00-29.00 -20.50-49.50t-49.50-20.50l-489.00,0.00  q-29.00,0.00 -49.50,20.50t-20.50,49.50z" horiz-adv-x="1536" />
<glyph unicode="&#xf04d;" d="M0.00,70.00l0.00,1396.00 q0.00,29.00 20.50,49.50t 49.50,20.50l 1396.00,0.00 q 29.00,0.00 49.50-20.50t 20.50-49.50l0.00-1396.00 q0.00-29.00 -20.50-49.50t-49.50-20.50l-1396.00,0.00 q-29.00,0.00 -49.50,20.50t-20.50,49.50z" horiz-adv-x="1536" />
<glyph unicode="&#xf04e;" d="M0.00,61.00l0.00,1414.00 q0.00,39.00 35.00,57.00q 39.00,14.00 63.00-14.00l 654.00-705.00q 16.00-18.00 16.00-45.00t-16.00-45.00l-654.00-705.00q-16.00-18.00 -41.00-18.00q-6.00,0.00 -22.00,4.00q-35.00,16.00 -35.00,57.00zM 768.00,61.00l0.00,1414.00 q0.00,39.00 35.00,57.00q 39.00,14.00 63.00-14.00l 654.00-705.00q 16.00-18.00 16.00-45.00t-16.00-45.00l-654.00-705.00q-16.00-18.00 -41.00-18.00q-6.00,0.00 -22.00,4.00q-35.00,16.00 -35.00,57.00z" horiz-adv-x="1536" />
<glyph unicode="&#xf050;" d="M0.00,61.00l0.00,1414.00 q0.00,39.00 35.00,57.00q 39.00,14.00 63.00-14.00l 654.00-705.00q 16.00-18.00 16.00-45.00t-16.00-45.00l-654.00-705.00q-16.00-18.00 -41.00-18.00q-6.00,0.00 -22.00,4.00q-35.00,16.00 -35.00,57.00zM 768.00,61.00l0.00,1414.00 q0.00,39.00 35.00,57.00q 39.00,14.00 63.00-14.00l 654.00-705.00q 16.00-18.00 16.00-45.00t-16.00-45.00l-654.00-705.00q-16.00-18.00 -41.00-18.00q-6.00,0.00 -22.00,4.00q-35.00,16.00 -35.00,57.00zM 1536.00,76.00 q0.00-31.00 22.50-53.50t 53.50-22.50l 153.00,0.00 q 33.00,0.00 55.50,22.50t 22.50,53.50l0.00,1382.00 q0.00,33.00 -22.50,55.50t-55.50,22.50l-153.00,0.00 q-31.00,0.00 -53.50-22.50t-22.50-55.50l0.00-1382.00 z" horiz-adv-x="1843" />
<glyph unicode="&#xf051;" d="M0.00,61.00l0.00,1414.00 q0.00,39.00 35.00,57.00q 39.00,14.00 63.00-14.00l 654.00-705.00q 16.00-18.00 16.00-45.00t-16.00-45.00l-654.00-705.00q-16.00-18.00 -41.00-18.00q-6.00,0.00 -22.00,4.00q-35.00,16.00 -35.00,57.00zM 768.00,76.00q0.00-31.00 22.50-53.50t 53.50-22.50l 153.00,0.00 q 33.00,0.00 55.50,22.50t 22.50,53.50l0.00,1382.00 q0.00,33.00 -22.50,55.50t-55.50,22.50l-153.00,0.00 q-31.00,0.00 -53.50-22.50t-22.50-55.50 l0.00-1382.00 z" horiz-adv-x="1075" />
<glyph unicode="&#xf052;" d="M0.00,70.00l0.00,198.00 q0.00,29.00 20.50,49.50t 49.50,20.50l 1396.00,0.00 q 29.00,0.00 49.50-20.50t 20.50-49.50l0.00-198.00 q0.00-29.00 -20.50-49.50t-49.50-20.50l-1396.00,0.00 q-29.00,0.00 -49.50,20.50t-20.50,49.50zM 6.00,594.00q-18.00,43.00 14.00,76.00l 699.00,698.00q 20.00,20.00 49.00,20.50t 49.00-20.50l 699.00-698.00q 33.00-33.00 14.00-76.00q-16.00-43.00 -64.00-43.00l-1396.00,0.00 q-47.00,0.00 -64.00,43.00z" horiz-adv-x="1536" />
<glyph unicode="&#xf053;" d="M0.00,765.00q0.00,38.00 29.00,66.00l 671.00,674.00q 29.00,29.00 68.00,29.00t 68.00-29.00l 100.00-100.00q 29.00-29.00 29.00-68.00t-29.00-67.00l-508.00-510.00l 508.00-500.00q 29.00-29.00 29.00-66.50t-29.00-66.50l-100.00-102.00q-29.00-29.00 -68.00-29.00t-68.00,29.00l-671.00,673.00q-29.00,29.00 -29.00,67.00z" horiz-adv-x="964" />
<glyph unicode="&#xf054;" d="M0.00,194.50q0.00,38.50 29.00,67.50l 508.00,508.00l-508.00,502.00q-29.00,29.00 -29.00,66.50t 29.00,66.50l 100.00,102.00q 29.00,29.00 68.00,29.00t 67.00-29.00l 672.00-673.00q 29.00-29.00 29.00-68.00t-29.00-68.00l-672.00-671.00q-29.00-29.00 -67.50-29.00t-67.50,29.00l-100.00,100.00q-29.00,29.00 -29.00,67.50z" horiz-adv-x="964" />
<glyph unicode="&#xf055;" d="M0.00,768.00q0.00,166.00 62.50,311.50t 171.00,254.00t 254.00,171.00t 311.50,62.50t 311.00-62.50t 254.00-171.00t 171.00-254.00t 62.00-311.50t-62.00-311.50t-171.00-254.00t-254.00-171.00t-311.00-62.50t-311.50,62.50t-254.00,171.00t-171.00,254.00t-62.50,311.50zM 338.00,688.00q0.00-33.00 33.00-33.00l 313.00,0.00 l0.00-344.00 q0.00-33.00 33.00-32.00l 164.00,0.00 q 33.00,0.00 32.00,32.00l0.00,344.00 l 314.00,0.00  q 12.00,0.00 22.50,9.50t 10.50,23.50l0.00,158.00 q0.00,14.00 -10.50,23.50t-22.50,9.50l-314.00,0.00 l0.00,346.00 q0.00,33.00 -32.00,32.00l-164.00,0.00 q-33.00,0.00 -33.00-32.00l0.00-346.00 l-313.00,0.00 q-33.00,0.00 -33.00-33.00l0.00-158.00 z" horiz-adv-x="1597" />
<glyph unicode="&#xf056;" d="M0.00,768.00q0.00,166.00 62.50,311.50t 171.00,254.00t 254.00,171.00t 311.50,62.50t 311.00-62.50t 254.00-171.00t 171.00-254.00t 62.00-311.50t-62.00-311.50t-171.00-254.00t-254.00-171.00t-311.00-62.50t-311.50,62.50t-254.00,171.00t-171.00,254.00t-62.50,311.50zM 338.00,688.00q0.00-33.00 33.00-33.00l 856.00,0.00 q 12.00,0.00 22.50,9.50t 10.50,23.50l0.00,158.00 q0.00,14.00 -10.50,23.50 t-22.50,9.50l-856.00,0.00 q-33.00,0.00 -33.00-33.00l0.00-158.00 z" horiz-adv-x="1597" />
<glyph unicode="&#xf057;" d="M0.00,770.00q0.00,154.00 58.50,301.50t 174.50,263.50q 117.00,117.00 264.50,175.50t 301.00,58.50t 301.00-58.50t 264.50-175.50t 175.00-264.00t 58.00-301.00t-58.00-301.00t-175.00-264.00t-264.50-175.50t-301.00-58.50t-301.00,58.50t-264.50,175.50t-175.00,264.00t-58.00,301.00zM 385.00,505.00q0.00-13.00 10.00-24.00l 115.00-116.00q 10.00-10.00 23.50-10.50t 23.50,10.50 l 244.00,243.00l 219.00-221.00q 10.00-10.00 23.50-10.00t 23.50,10.00l 113.00,113.00q 23.00,23.00 0.00,47.00l-222.00,219.00l 246.00,246.00q 23.00,23.00 0.00,47.00l-117.00,115.00q-25.00,25.00 -47.00,0.00l-243.00-244.00l-222.00,221.00q-10.00,10.00 -23.00,10.00t-24.00-10.00l-110.00-113.00q-25.00-23.00 0.00-47.00l 219.00-219.00l-242.00-244.00q-10.00-10.00 -10.00-23.00z" horiz-adv-x="1597" />
<glyph unicode="&#xf058;" d="M0.00,768.00q0.00,166.00 62.50,311.50t 171.00,254.00t 254.00,171.00t 311.50,62.50t 311.00-62.50t 254.00-171.00t 171.00-254.00t 62.00-311.50t-62.00-311.50t-171.00-254.00t-254.00-171.00t-311.00-62.50t-311.50,62.50t-254.00,171.00t-171.00,254.00t-62.50,311.50zM 240.00,718.00q0.00-20.00 14.00-34.00l 319.00-319.00q 14.00-14.00 38.00-24.50t 44.00-10.50l 56.00,0.00 q 20.00,0.00 43.50,10.00 t 38.50,25.00l 550.00,550.00q 14.00,14.00 14.50,34.00t-14.50,34.00l-104.00,107.00q-16.00,14.00 -35.50,14.00t-34.50-14.00l-452.00-453.00q-14.00-14.00 -33.50-14.00t-34.50,14.00l-221.00,221.00q-14.00,14.00 -33.50,14.00t-36.50-14.00l-104.00-106.00q-14.00-14.00 -14.00-34.00z" horiz-adv-x="1597" />
<glyph unicode="&#xf059;" d="M0.00,768.00q0.00,166.00 62.50,311.50t 171.00,254.00t 254.00,171.00t 311.50,62.50t 311.00-62.50t 254.00-171.00t 171.00-254.00t 62.00-311.50t-62.00-311.50t-171.00-254.00t-254.00-171.00t-311.00-62.50t-311.50,62.50t-254.00,171.00t-171.00,254.00t-62.50,311.50zM 532.00,1100.00l 95.00-115.00q 4.00-8.00 20.00-12.00q 12.00,0.00 23.00,6.00l 10.00,8.00t 27.50,17.50t 39.00,16.50t 46.50,7.00 q 41.00,0.00 69.50-22.50t 28.50-57.50q0.00-37.00 -24.50-64.50t-61.50-60.50q-23.00-18.00 -46.50-40.50t-43.00-51.50t-31.50-63.50t-12.00-79.50l0.00-64.00 q0.00-12.00 9.00-21.00t 21.00-9.00l 164.00,0.00 q 12.00,0.00 20.50,9.00t 8.50,21.00l0.00,51.00 q0.00,39.00 25.50,66.50t 62.50,60.50q 25.00,20.00 49.50,46.00t 46.00,57.00t 34.50,69.50t 13.00,90.50q0.00,68.00 -27.50,121.00t-73.50,87.50 t-103.50,53.00t-114.50,18.50q-63.00,0.00 -113.50-16.50t-85.50-35.50t-53.00-35.50t-20.00-18.50q-16.00-16.00 -3.00-39.00zM 672.00,252.00q0.00-12.00 9.00-21.50t 21.00-9.50l 164.00,0.00 q 12.00,0.00 20.50,9.50t 8.50,21.50l0.00,156.00 q0.00,12.00 -8.00,21.00t-21.00,9.00l-164.00,0.00 q-12.00,0.00 -21.00-9.00t-9.00-21.00l0.00-156.00 z" horiz-adv-x="1597" />
<glyph unicode="&#xf05a;" d="M0.00,768.00q0.00,166.00 62.50,311.50t 171.00,254.00t 254.00,171.00t 311.50,62.50t 311.00-62.50t 254.00-171.00t 171.00-254.00t 62.00-311.50t-62.00-311.50t-171.00-254.00t-254.00-171.00t-311.00-62.50t-311.50,62.50t-254.00,171.00t-171.00,254.00t-62.50,311.50zM 573.00,858.00q0.00-29.00 29.00-29.00l 86.00,0.00 l0.00-409.00 l-78.00,0.00 q-12.00,0.00 -21.00-8.50t-9.00-20.50l0.00-139.00 q0.00-12.00 9.00-21.50 t 21.00-9.50l 402.00,0.00 q 12.00,0.00 20.00,9.50t 8.00,21.50l0.00,139.00 q0.00,29.00 -28.00,29.00l-78.00,0.00 l0.00,577.00 q0.00,12.00 -8.00,21.50t-21.00,9.50l-303.00,0.00 q-12.00,0.00 -20.50-9.00t-8.50-22.00l0.00-139.00 zM 686.00,1151.00q0.00-12.00 9.50-21.50t 21.50-9.50l 188.00,0.00 q 12.00,0.00 20.50,9.50t 8.50,21.50l0.00,166.00 q0.00,29.00 -29.00,29.00l-188.00,0.00 q-12.00,0.00 -21.50-8.50t-9.50-20.50l0.00-166.00 z" horiz-adv-x="1597" />
<glyph unicode="&#xf05b;" d="M0.00,692.00l0.00,154.00 q0.00,16.00 11.50,26.50t 27.50,10.50l 164.00,0.00 q 18.00,84.00 59.00,158.50t 99.50,133.00t 133.00,99.50t 158.50,59.00l0.00,164.00 q0.00,39.00 39.00,39.00l 154.00,0.00 q 16.00,0.00 26.50-11.50t 10.50-27.50l0.00-164.00 q 84.00-18.00 158.50-59.00t 133.00-99.50t 99.50-133.00t 59.00-158.50l 164.00,0.00 q 16.00,0.00 27.50-10.50t 11.50-26.50l0.00-154.00 q0.00-39.00 -39.00-39.00l-164.00,0.00  q-18.00-84.00 -59.00-158.50t-99.50-133.00t-133.00-99.50t-158.50-59.00l0.00-164.00 q0.00-16.00 -10.50-27.50t-26.50-11.50l-154.00,0.00 q-39.00,0.00 -39.00,39.00l0.00,164.00 q-84.00,18.00 -158.50,59.00t-133.00,99.50t-99.50,133.00t-59.00,158.50l-164.00,0.00 q-39.00,0.00 -39.00,39.00zM 365.00,653.00q 29.00-106.00 105.50-183.00t 182.50-105.00l0.00,174.00 q0.00,16.00 11.50,26.00t 27.50,10.00l 154.00,0.00  q 16.00,0.00 26.50-10.00t 10.50-26.00l0.00-174.00 q 106.00,29.00 183.00,105.50t 105.00,182.50l-172.00,0.00 q-39.00,0.00 -38.00,39.00l0.00,154.00 q0.00,16.00 11.00,26.50t 27.00,10.50l 172.00,0.00 q-29.00,106.00 -105.50,183.00t-182.50,105.00l0.00-172.00 q0.00-16.00 -10.50-27.00t-26.50-11.00l-154.00,0.00 q-39.00,0.00 -39.00,38.00l0.00,172.00 q-106.00-29.00 -183.00-105.50t-105.00-182.50l 174.00,0.00 q 16.00,0.00 26.00-10.50t 10.00-26.50l0.00-154.00  q0.00-16.00 -10.00-27.50t-26.00-11.50l-174.00,0.00 z" horiz-adv-x="1536" />
<glyph unicode="&#xf05c;" d="M0.00,768.00q0.00,166.00 62.50,311.50t 171.00,254.00t 254.00,171.00t 311.50,62.50t 311.00-62.50t 254.00-171.00t 171.00-254.00t 62.00-311.50t-62.00-311.50t-171.00-254.00t-254.00-171.00t-311.00-62.50t-311.50,62.50t-254.00,171.00t-171.00,254.00t-62.50,311.50zM 240.00,768.00q0.00-117.00 44.00-218.00t 119.50-177.00t 177.00-120.00t 218.50-44.00t 218.00,44.00t 177.00,120.00t 120.00,177.00 t 44.00,218.00t-44.00,218.00t-120.00,177.00t-177.50,120.00t-217.50,44.00q-117.00,0.00 -218.50-44.00t-177.00-120.00t-119.50-177.00t-44.00-218.00zM 451.00,573.50q0.00,16.50 12.00,28.50l 166.00,166.00l-166.00,166.00q-12.00,12.00 -12.00,28.50t 12.00,28.50l 112.00,113.00q 29.00,29.00 58.00,0.00l 166.00-166.00l 166.00,166.00q 29.00,29.00 57.00,0.00l 113.00-113.00q 29.00-29.00 0.00-57.00l-166.00-166.00l 166.00-166.00 q 29.00-29.00 0.00-57.00l-113.00-113.00q-12.00-12.00 -28.50-12.00t-28.50,12.00l-166.00,166.00l-166.00-166.00q-12.00-12.00 -28.50-12.00t-29.50,12.00l-112.00,113.00q-12.00,12.00 -12.00,28.50z" horiz-adv-x="1597" />
<glyph unicode="&#xf05d;" d="M0.00,768.00q0.00,166.00 62.50,311.50t 171.00,254.00t 254.00,171.00t 311.50,62.50t 311.00-62.50t 254.00-171.00t 171.00-254.00t 62.00-311.50t-62.00-311.50t-171.00-254.00t-254.00-171.00t-311.00-62.50t-311.50,62.50t-254.00,171.00t-171.00,254.00t-62.50,311.50zM 240.00,768.00q0.00-117.00 44.00-218.00t 119.50-177.00t 177.00-120.00t 218.50-44.00t 218.00,44.00t 177.00,120.00t 120.00,177.00 t 44.00,218.00t-44.00,218.00t-120.00,177.00t-177.50,120.00t-217.50,44.00q-117.00,0.00 -218.50-44.00t-177.00-120.00t-119.50-177.00t-44.00-218.00zM 332.00,717.50q0.00,17.50 10.00,27.50l 115.00,115.00q 10.00,10.00 27.50,10.00t 27.50-10.00l 178.00-180.00q 29.00-25.00 58.00,0.00l 337.00,340.00q 10.00,10.00 27.50,10.00t 28.50-10.00l 114.00-115.00q 10.00-10.00 10.50-27.50t-10.50-27.50l-409.00-410.00 q-12.00-12.00 -32.50-20.00t-37.50-8.00l-114.00,0.00 q-16.00,0.00 -37.00,8.00t-33.00,20.00l-250.00,250.00q-10.00,10.00 -10.00,27.50z" horiz-adv-x="1597" />
<glyph unicode="&#xf05e;" d="M0.00,768.00q0.00,166.00 62.50,311.50t 171.00,254.00t 254.00,171.00t 311.50,62.50t 311.00-62.50t 254.00-171.00t 171.00-254.00t 62.00-311.50t-62.00-311.50t-171.00-254.00t-254.00-171.00t-311.00-62.50t-311.50,62.50t-254.00,171.00t-171.00,254.00t-62.50,311.50zM 240.00,768.00q0.00-84.00 23.50-160.00t 66.50-141.00l 770.00,770.00q-66.00,43.00 -141.50,66.50t-159.50,23.50 q-117.00,0.00 -218.50-44.00t-177.00-120.00t-119.50-177.00t-44.00-218.00zM 498.00,297.00q 66.00-41.00 141.50-64.50t 159.50-23.50q 117.00,0.00 218.00,44.00t 177.00,120.00t 120.00,177.00t 44.00,218.00q0.00,84.00 -23.50,160.00t-64.50,141.00z" horiz-adv-x="1597" />
<glyph unicode="&#xf060;" d="M0.00,768.00q0.00,39.00 29.00,68.00l 671.00,673.00q 29.00,29.00 68.00,29.00t 68.00-29.00l 100.00-100.00q 29.00-29.00 29.00-67.50t-29.00-67.50l-338.00-338.00l 842.00,0.00 q 41.00,0.00 68.50-27.50t 27.50-68.50l0.00-144.00 q0.00-39.00 -27.50-66.50t-66.50-27.50l-844.00,0.00 l 338.00-338.00q 29.00-29.00 29.00-67.50t-29.00-67.50l-100.00-100.00q-29.00-29.00 -68.00-29.00t-68.00,29.00l-671.00,671.00q-29.00,29.00 -29.00,68.00 z" horiz-adv-x="1536" />
<glyph unicode="&#xf061;" d="M0.00,698.00l0.00,144.00 q0.00,39.00 27.50,66.50t 66.50,27.50l 844.00,0.00 l-338.00,338.00q-29.00,29.00 -29.00,67.50t 29.00,67.50l 100.00,100.00q 29.00,29.00 68.00,29.00t 68.00-29.00l 671.00-673.00q 29.00-29.00 29.00-67.00t-29.00-67.00l-671.00-673.00q-29.00-29.00 -68.00-29.00t-68.00,29.00l-100.00,100.00q-29.00,29.00 -29.00,68.00t 29.00,67.00l 338.00,338.00l-844.00,0.00 q-39.00,0.00 -66.50,27.50t-27.50,68.50z" horiz-adv-x="1536" />
<glyph unicode="&#xf062;" d="M-1.00,768.00q-1.00,39.00 28.00,68.00l 673.00,671.00q 29.00,29.00 68.00,29.00t 68.00-29.00l 671.00-671.00q 29.00-29.00 29.00-68.00t-29.00-68.00l-100.00-100.00q-29.00-29.00 -66.50-29.00t-66.50,29.00l-340.00,338.00l0.00-844.00 q0.00-39.00 -27.50-66.50t-66.50-27.50l-144.00,0.00 q-41.00,0.00 -67.50,27.50t-26.50,66.50l0.00,844.00 l-338.00-338.00q-29.00-29.00 -67.50-29.00t-67.50,29.00l-100.00,100.00 q-29.00,29.00 -30.00,68.00z" horiz-adv-x="1536" />
<glyph unicode="&#xf063;" d="M0.00,766.00q0.00,39.00 29.00,68.00l 100.00,100.00q 29.00,29.00 68.00,29.00t 67.00-29.00l 338.00-338.00l0.00,844.00 q0.00,39.00 27.50,66.50t 66.50,27.50l 144.00,0.00 q 41.00,0.00 67.50-27.50t 26.50-66.50l0.00-844.00 l 340.00,338.00q 29.00,29.00 66.50,29.00t 66.50-29.00l 102.00-100.00q 29.00-29.00 29.00-68.00t-29.00-68.00l-673.00-671.00q-29.00-29.00 -68.00-29.00t-68.00,29.00l-671.00,671.00q-29.00,29.00 -29.00,68.00z" horiz-adv-x="1536" />
<glyph unicode="&#xf064;" d="M0.00,135.00q0.00,209.00 71.50,393.50t 218.00,322.50t 371.00,219.00t 531.50,83.00l0.00,293.00 q0.00,72.00 36.00,87.00t 89.00-36.00l 491.00-493.00q 35.00-33.00 35.00-82.00q0.00-47.00 -35.00-82.00l-491.00-494.00q-51.00-51.00 -88.00-35.50t-37.00,86.50l0.00,330.00 q-262.00-2.00 -461.00-56.50t-336.00-147.50t-215.00-219.00t-98.00-271.00q-4.00-33.00 -37.00-33.00l-2.00,0.00 q-33.00,0.00 -37.00,33.00q-6.00,51.00 -6.00,102.00z" horiz-adv-x="1843" />
<glyph unicode="&#xf065;" d="M0.00,86.00l0.00,522.00 q0.00,53.00 26.50,64.50t 65.50-25.50l 166.00-166.00l 274.00,275.00q 12.00,12.00 31.00,12.00t 33.00-12.00l 160.00-160.00q 12.00-14.00 12.00-32.50t-12.00-31.50l-275.00-274.00l 166.00-166.00q 39.00-39.00 27.00-65.50t-66.00-26.50l-520.00,0.00 q-37.00,0.00 -61.00,25.00q-27.00,27.00 -27.00,61.00zM 768.00,972.50q0.00,18.50 12.00,31.50l 275.00,274.00l-166.00,166.00q-39.00,39.00 -27.00,65.50t 66.00,26.50 l 520.00,0.00 q 37.00,0.00 61.00-25.00q 27.00-27.00 27.00-61.00l0.00-522.00 q0.00-53.00 -26.50-64.50t-65.50,25.50l-166.00,166.00l-274.00-273.00q-12.00-14.00 -31.00-14.00t-33.00,14.00l-160.00,158.00q-12.00,14.00 -12.00,32.50z" horiz-adv-x="1536" />
<glyph unicode="&#xf066;" d="M0.00,202.50q0.00,18.50 12.00,33.50l 275.00,272.00l-166.00,166.00q-39.00,39.00 -27.00,65.50t 66.00,26.50l 520.00,0.00 q 38.00,0.00 61.00-25.00q 27.00-27.00 27.00-61.00l0.00-522.00 q0.00-53.00 -26.50-64.50t-65.50,27.50l-166.00,166.00l-274.00-275.00q-12.00-14.00 -31.00-14.00t-33.00,14.00l-160.00,160.00q-12.00,12.00 -12.00,30.50zM 768.00,854.00l0.00,522.00 q0.00,53.00 26.50,64.50t 65.50-27.50l 166.00-166.00l 274.00,275.00 q 12.00,14.00 31.00,14.00t 33.00-14.00l 160.00-160.00q 12.00-12.00 12.00-30.50t-12.00-33.50l-275.00-272.00l 166.00-166.00q 39.00-39.00 27.00-65.50t-66.00-26.50l-520.00,0.00 q-41.00,0.00 -61.00,25.00q-27.00,27.00 -27.00,61.00z" horiz-adv-x="1536" />
<glyph unicode="&#xf067;" d="M0.00,696.00l0.00,144.00 q0.00,39.00 27.50,66.50t 66.50,27.50l 508.00,0.00 l0.00,506.00 q0.00,41.00 26.50,68.50t 67.50,27.50l 144.00,0.00 q 39.00,0.00 66.50-27.50t 27.50-66.50l0.00-508.00 l 508.00,0.00 q 39.00,0.00 66.50-27.50t 27.50-66.50l0.00-144.00 q0.00-39.00 -27.50-66.50t-66.50-27.50l-508.00,0.00 l0.00-506.00 q0.00-41.00 -27.50-68.50t-66.50-27.50l-144.00,0.00 q-39.00,0.00 -66.50,27.50t-27.50,66.50l0.00,508.00  l-506.00,0.00 q-41.00,0.00 -68.50,26.50t-27.50,67.50z" horiz-adv-x="1536" />
<glyph unicode="&#xf068;" d="M0.00,696.00l0.00,144.00 q0.00,39.00 27.50,66.50t 66.50,27.50l 1348.00,0.00 q 39.00,0.00 66.50-27.50t 27.50-66.50l0.00-144.00 q0.00-39.00 -27.50-66.50t-66.50-27.50l-1346.00,0.00 q-41.00,0.00 -68.50,26.50t-27.50,67.50z" horiz-adv-x="1536" />
<glyph unicode="&#xf069;" d="M 2.00,1018.00q-10.00,37.00 10.00,72.00l 72.00,124.00q 20.00,35.00 58.00,44.50t 73.00-9.50l 332.00-192.00l0.00,383.00 q0.00,41.00 27.50,68.50t 68.50,27.50l 141.00,0.00 q 41.00,0.00 69.00-27.50t 28.00-66.50l0.00-385.00 l 331.00,192.00q 35.00,18.00 73.00,9.00t 58.00-44.00l 70.00-124.00q 20.00-35.00 11.00-72.00t-44.00-57.00l-333.00-193.00l 333.00-193.00q 35.00-20.00 44.50-57.00t-9.50-72.00l-72.00-124.00q-20.00-35.00 -58.00-44.50 t-73.00,9.50l-331.00,192.00l0.00-383.00 q0.00-41.00 -28.00-68.50t-69.00-27.50l-141.00,0.00 q-41.00,0.00 -68.50,27.50t-27.50,66.50l0.00,385.00 l-332.00-192.00q-35.00-20.00 -73.00-10.00t-58.00,45.00l-72.00,124.00q-18.00,35.00 -9.00,72.00t 44.00,57.00l 334.00,193.00l-334.00,193.00q-35.00,20.00 -45.00,57.00z" horiz-adv-x="1427" />
<glyph unicode="&#xf06a;" d="M0.00,768.00q0.00,166.00 62.50,311.50t 171.00,254.00t 254.00,171.00t 311.50,62.50t 311.00-62.50t 254.00-171.00t 171.00-254.00t 62.00-311.50t-62.00-311.50t-171.00-254.00t-254.00-171.00t-311.00-62.50t-311.50,62.50t-254.00,171.00t-171.00,254.00t-62.50,311.50zM 672.00,1274.00l 14.00-739.00q 4.00-29.00 31.00-29.00l 162.00,0.00 q 12.00,0.00 21.00,8.00t 9.00,21.00l 17.00,739.00q0.00,10.00 -8.00,22.00q-8.00,8.00 -23.00,9.00 l-193.00,0.00 q-14.00,0.00 -22.00-9.00q-8.00-12.00 -8.00-22.00zM 680.00,236.00q0.00-12.00 8.00-21.50t 21.00-9.50l 180.00,0.00 q 12.00,0.00 21.50,9.00t 9.50,22.00l0.00,174.00 q0.00,12.00 -9.50,21.00t-21.50,9.00l-180.00,0.00 q-12.00,0.00 -20.50-9.00t-8.50-21.00l0.00-174.00 z" horiz-adv-x="1597" />
<glyph unicode="&#xf06b;" d="M0.00,588.00l0.00,391.00 q0.00,16.00 11.50,27.50t 27.50,11.50l 539.00,0.00 q-57.00,0.00 -107.50,21.50t-87.50,58.50t-58.50,87.00t-21.50,107.00t 21.50,107.50t 58.50,87.50t 87.00,58.50t 108.00,21.50q 61.00,0.00 115.50-24.50t 88.50-69.50l 158.00-203.00l 158.00,203.00q 35.00,45.00 89.00,69.50t 116.00,24.50q 57.00,0.00 107.00-21.50t 87.00-58.50t 58.50-87.00t 21.50-108.00 q0.00-57.00 -21.50-107.00t-58.50-87.00t-87.00-58.50t-107.00-21.50l 538.00,0.00 q 16.00,0.00 27.50-11.50t 11.50-27.50l0.00-391.00 q0.00-16.00 -11.00-27.50t-28.00-11.50l-117.00,0.00 l0.00-432.00 q0.00-47.00 -34.50-82.00t-83.50-35.00l-1332.00,0.00 q-49.00,0.00 -82.50,35.00t-33.50,82.00l0.00,432.00 l-119.00,0.00 q-16.00,0.00 -27.50,11.00t-11.50,28.00zM 461.00,1292.00q0.00-49.00 33.50-82.50t 83.50-33.50l 237.00,0.00  l-151.00,196.00q-10.00,10.00 -32.00,24.50t-54.00,14.50q-49.00,0.00 -83.00-35.00t-34.00-84.00zM 743.00,221.00q0.00-33.00 24.00-56.50t 56.00-23.50l 234.00,0.00 q 33.00,0.00 56.50,23.50t 23.50,56.50l0.00,797.00 l-394.00,0.00 l0.00-797.00 zM 1065.00,1176.00l 238.00,0.00 q 49.00,0.00 82.50,33.50t 33.50,82.50t-33.50,84.00t-82.50,35.00q-33.00,0.00 -54.50-14.50t-31.50-24.50z" horiz-adv-x="1880" />
<glyph unicode="&#xf06c;" d="M 6.00,135.00q 20.00,53.00 56.00,89.00t 71.00,65.00q 29.00,23.00 50.50,43.00t 27.50,43.00q 2.00,6.00 0.00,12.00t-10.00,25.00q-6.00,12.00 -11.50,27.50t-9.50,35.50q-25.00,160.00 13.00,295.00t 120.00,242.50t 195.00,185.50t 235.00,121.00q 82.00,29.00 179.50,34.00t 203.50,7.00q 61.00,0.00 127.00,2.00t 127.50,11.00t 113.50,28.50t 85.00,54.50q 20.00,20.00 38.50,41.00t 38.00,36.00t 43.00,24.50t 58.50,9.50q 23.00,0.00 42.50-11.50 t 29.50-31.50q 66.00-133.00 83.00-281.50t-18.00-322.50q-90.00-487.00 -579.00-740.00q-231.00-123.00 -467.00-123.00q-154.00,0.00 -307.00,54.00q-23.00,8.00 -45.50,20.00t-44.50,25.00q-29.00,16.00 -57.50,30.50t-49.50,14.50q-10.00-2.00 -23.50-17.50t-27.50-35.00t-26.50-41.00t-20.50-33.50q-14.00-23.00 -26.50-41.50t-22.50-32.50q-25.00-31.00 -64.00-31.00l-4.00,0.00  q-29.00,2.00 -49.50,12.50t-33.50,24.50t-20.50,28.50t-9.50,22.50q-27.00,37.00 -10.00,78.00zM 401.00,507.50q 2.00-32.50 29.00-54.50q 20.00-18.00 51.00-19.00q 37.00,0.00 62.00,27.00q 90.00,102.00 181.00,175.00t 191.50,117.00t 212.00,62.00t 242.50,14.00q 33.00-4.00 57.50,19.50t 26.50,56.50q 2.00,35.00 -20.50,58.50t-57.50,25.50q-147.00,6.00 -277.00-16.50t-247.00-73.50t-223.50-133.00 t-206.50-199.00q-23.00-27.00 -21.00-59.50z" horiz-adv-x="1916" />
<glyph unicode="&#xf06d;" d="M0.00,442.00q0.00,123.00 63.50,254.00t 174.50,238.00q 10.00,16.00 33.50,13.00t 31.50-21.00q 4.00-16.00 0.00-29.00q-8.00-35.00 -14.00-84.00t-4.00-101.50t 13.00-101.50t 38.00-84.00q 31.00-37.00 78.00-49.00q-49.00,154.00 -40.00,293.00t 49.00,259.00t 101.50,217.00t 118.50,167.00t 98.00,106.50t 43.00,39.50q 25.00,18.00 47.00,0.00q 10.00-8.00 13.50-21.50t-0.50-24.50q0.00-2.00 -15.50-42.50t-21.50-102.00 t 7.00-134.50t 71.00-136.00q 37.00-43.00 67.50-85.00t 52.00-93.50t 34.00-120.00t 12.50-162.50q0.00-33.00 -31.00-39.00q-12.00-2.00 -24.50,4.00t-16.50,19.00q-14.00,31.00 -42.00,49.00t-63.00,18.00q-47.00,0.00 -79.50-33.50t-32.50-81.50q0.00-121.00 156.00-120.00q 98.00,0.00 153.00,63.00q 37.00,43.00 53.50,101.50t 20.50,114.50t 2.00,102.50t-4.00,62.50q-6.00,12.00 0.00,29.00q 8.00,18.00 31.50,21.00 t 35.50-13.00q 111.00-106.00 173.50-237.50t 62.50-254.50q0.00-109.00 -51.50-195.50t-145.50-148.00t-228.00-95.50t-298.00-34.00t-298.00,34.00t-228.50,95.50t-145.50,148.50t-51.00,195.00z" horiz-adv-x="1445" />
<glyph unicode="&#xf06e;" d="M0.00,722.00q0.00,44.00 25.00,83.00q 78.00,125.00 178.00,224.00t 216.00,168.00t 242.50,104.50t 260.50,35.50q 135.00,0.00 262.00-35.50t 241.50-103.50t 215.00-167.00t 180.50-226.00q 23.00-39.00 22.50-83.00t-22.50-81.00q-80.00-127.00 -180.50-226.50t-215.00-167.00t-241.50-103.00t-262.00-35.50q-133.00,0.00 -260.00,35.50t-243.00,104.00t-216.50,168.00t-177.50,224.50 q-25.00,37.00 -25.00,81.00zM 154.00,723.00q 66.00-104.00 149.50-190.50t 182.00-145.50t 208.00-92.00t 228.50-33.00t 228.50,33.00t 207.50,92.00t 182.00,145.00t 150.00,191.00q-80.00,129.00 -187.50,226.50t-236.50,156.50q 51.00-59.00 79.50-133.00t 28.50-160.00q0.00-96.00 -35.50-179.00t-99.00-146.50t-147.50-99.50t-179.00-36.00q-96.00,0.00 -179.00,36.00t-146.50,99.50t-99.00,146.50 t-35.50,179.00q0.00,78.00 25.50,148.50t 68.50,128.50q-117.00-59.00 -217.50-152.50t-175.50-214.50zM 614.00,813.00q0.00-23.00 16.50-40.00t 41.50-17.00t 41.00,17.50t 16.00,39.50q0.00,78.00 53.50,131.00t 130.50,53.00q 25.00,0.00 41.50,17.50t 16.50,40.50q0.00,25.00 -16.50,41.00t-41.50,16.00q-61.00,0.00 -116.50-23.50t-95.00-63.50t-63.50-95.50t-24.00-116.50z" horiz-adv-x="1843" />
<glyph unicode="&#xf070;" d="M0.00,767.00q0.00,44.00 25.00,83.00q 78.00,125.00 178.00,224.50t 216.00,168.00t 242.50,104.00t 260.50,35.50q 53.00,0.00 105.00-7.00t 103.00-17.00l 89.00,158.00q 8.00,14.00 24.00,18.00q 12.00,6.00 29.00-2.00l 133.00-76.00q 14.00-8.00 19.50-23.50t-3.50-29.50l-774.00-1383.00q-6.00-14.00 -22.00-18.00q-4.00-2.00 -11.00-2.00q-6.00,0.00 -18.00,4.00l-135.00,76.00q-14.00,8.00 -18.50,23.50t 3.50,29.50l 66.00,115.00 q-145.00,68.00 -269.00,178.50t-218.00,259.50q-25.00,37.00 -25.00,81.00zM 154.00,768.00q 82.00-131.00 191.50-229.50t 240.50-157.50l 57.00,104.00q-86.00,63.00 -138.00,159.50t-52.00,213.50q0.00,78.00 25.50,148.50t 68.50,130.50q-117.00-61.00 -217.50-153.50t-175.50-215.50zM 614.00,858.00q0.00-23.00 16.50-40.00t 41.50-17.00t 41.00,17.50t 16.00,39.50q0.00,78.00 53.50,131.00 t 130.50,53.00q 25.00,0.00 41.50,17.50t 16.50,40.50q0.00,25.00 -16.50,41.00t-41.50,16.00q-61.00,0.00 -116.50-23.50t-95.00-63.50t-63.50-95.50t-24.00-116.50zM 928.00,154.00l 88.00,159.00q 209.00,25.00 382.00,145.00t 292.00,310.00q-109.00,170.00 -263.00,283.00l 76.00,137.00q 92.00-66.00 172.00-150.00t 146.00-188.00q 23.00-39.00 22.50-83.00t-22.50-81.00q-160.00-254.00 -392.50-392.00 t-500.50-140.00zM 1081.00,430.00l 285.00,510.00q 4.00-20.00 6.00-39.50t 2.00-42.50q0.00-74.00 -21.50-140.50t-60.50-121.50t-93.00-98.00t-118.00-68.00z" horiz-adv-x="1843" />
<glyph unicode="&#xf071;" d="M0.00,92.00q0.00,20.00 6.00,39.00t 17.00,35.00l 768.00,1331.00q 16.00,27.00 39.50,48.50t 56.50,21.50t 56.50-21.50t 39.50-48.50l 770.00-1331.00q 10.00-16.00 16.50-34.50t 6.50-39.50q0.00-49.00 -38.00-70.50t-81.00-21.50l-1538.00,0.00 q-43.00,0.00 -81.00,21.50t-38.00,70.50zM 770.00,1114.00l 12.00-633.00q0.00-14.00 10.50-24.50t 24.50-10.50l 139.00,0.00 q 14.00,0.00 24.50,10.50t 10.50,24.50 l 15.00,633.00q0.00,14.00 -10.50,24.50t-24.50,10.50l-166.00,0.00 q-16.00,0.00 -25.50-10.50t-9.50-24.50zM 776.00,168.00q0.00-16.00 10.50-25.50t 24.50-9.50l 154.00,0.00 q 35.00,0.00 34.00,35.00l0.00,147.00 q0.00,16.00 -9.00,26.50t-25.00,10.50l-154.00,0.00 q-14.00,0.00 -24.50-10.00t-10.50-27.00l0.00-147.00 z" horiz-adv-x="1775" />
<glyph unicode="&#xf072;" d="M0.00,541.00l0.00,4.00 q0.00,31.00 23.00,57.00l 30.00,29.00q 20.00,25.00 56.00,24.00q 8.00,0.00 10.00-2.00l 280.00-32.00q 39.00,63.00 93.50,134.50t 125.50,151.50l-583.00,457.00q-31.00,25.00 -31.00,59.00l0.00,4.00 q0.00,31.00 23.00,58.00l 57.00,57.00q 27.00,23.00 57.00,23.00l 13.50,0.00 t 13.50-4.00l 803.00-293.00l 151.00,149.00q 70.00,70.00 161.00,110.00t 167.00,40.00q 72.00,0.00 109.00-37.00q 20.00-18.00 28.00-46.00t 8.00-63.00q0.00-76.00 -38.50-167.00t-110.50-160.00 l-150.00-152.00l 293.00-803.00q 6.00-12.00 6.00-26.00q0.00-33.00 -24.00-58.00l-58.00-57.00q-23.00-25.00 -57.00-25.00l-4.00,0.00 q-35.00,4.00 -59.00,31.00l-455.00,586.00q-82.00-72.00 -153.50-126.00t-135.50-93.00l 35.00-281.00l0.00-10.00 q0.00-33.00 -22.00-55.00l-31.00-31.00q-23.00-23.00 -58.00-23.00l-4.00,0.00 q-39.00,4.00 -59.00,31.00l-205.00,272.00l-274.00,207.00q-29.00,25.00 -31.00,60.00z" horiz-adv-x="1597" />
<glyph unicode="&#xf073;" d="M0.00,117.00l0.00,1147.00 q0.00,47.00 35.00,81.50t 82.00,34.50l 39.00,0.00 l0.00,13.00 q0.00,31.00 10.00,62.50t 32.50,56.00t 59.50,40.00t 90.00,15.50t 90.00-15.50t 59.50-40.00t 33.00-56.50t 10.50-62.00l0.00-13.00 l 49.00,0.00 l0.00,13.00 q0.00,31.00 10.00,62.50t 32.50,56.00t 59.50,40.00t 90.00,15.50t 90.00-15.50t 60.50-40.00t 34.00-56.50t 10.50-62.00l0.00-13.00 l 49.00,0.00 l0.00,13.00 q0.00,31.00 10.50,62.50t 33.00,56.00t 59.00,40.00t 90.50,15.50 q 53.00,0.00 90.00-15.50t 59.50-40.00t 32.50-56.50t 10.00-62.00l0.00-13.00 l 39.00,0.00 q 47.00,0.00 82.00-34.50t 35.00-81.50l0.00-1147.00 q0.00-47.00 -35.00-82.00t-82.00-35.00l-1333.00,0.00 q-47.00,0.00 -82.00,35.00t-35.00,82.00zM 158.00,158.00l 282.00,0.00 l0.00,250.00 l-282.00,0.00 l0.00-250.00 zM 158.00,446.00l 282.00,0.00 l0.00,252.00 l-282.00,0.00 l0.00-252.00 zM 158.00,737.00l 282.00,0.00 l0.00,252.00 l-282.00,0.00 l0.00-252.00 zM 272.00,1165.00q0.00-57.00 76.00-57.00t 76.00,57.00l0.00,228.00 q0.00,57.00 -76.00,57.00 t-76.00-57.00l0.00-228.00 zM 479.00,158.00l 285.00,0.00 l0.00,250.00 l-285.00,0.00 l0.00-250.00 zM 479.00,446.00l 285.00,0.00 l0.00,252.00 l-285.00,0.00 l0.00-252.00 zM 479.00,737.00l 285.00,0.00 l0.00,252.00 l-285.00,0.00 l0.00-252.00 zM 709.00,1165.00q0.00-31.00 16.00-44.00t 57.00-13.00t 58.50,13.50t 17.50,43.50l0.00,228.00 q0.00,29.00 -17.50,43.00t-58.50,14.00t-57.00-14.50t-16.00-42.50l0.00-228.00 zM 803.00,158.00l 284.00,0.00 l0.00,250.00 l-284.00,0.00 l0.00-250.00 zM 803.00,446.00l 284.00,0.00 l0.00,252.00 l-284.00,0.00 l0.00-252.00 z M 803.00,737.00l 284.00,0.00 l0.00,252.00 l-284.00,0.00 l0.00-252.00 zM 1126.00,158.00l 283.00,0.00 l0.00,250.00 l-283.00,0.00 l0.00-250.00 zM 1126.00,446.00l 283.00,0.00 l0.00,252.00 l-283.00,0.00 l0.00-252.00 zM 1126.00,737.00l 283.00,0.00 l0.00,252.00 l-283.00,0.00 l0.00-252.00 zM 1143.00,1165.00q0.00-57.00 76.00-57.00t 75.00,57.00l0.00,228.00 q0.00,57.00 -75.00,57.00q-76.00,0.00 -76.00-57.00l0.00-228.00 z" horiz-adv-x="1566" />
<glyph unicode="&#xf074;" d="M0.00,252.00l0.00,154.00 q0.00,16.00 11.50,27.00t 27.50,11.00l 219.00,0.00 q 51.00,0.00 99.50,31.00t 93.50,83.00t 90.00,119.50t 90.00,139.50q 55.00,88.00 114.50,175.00t 127.00,156.00t 147.50,110.50t 180.00,41.50l 203.00,0.00 l0.00,185.00 q0.00,41.00 24.50,49.00t 59.50-21.00l 334.00-278.00q 23.00-18.00 22.00-45.00q0.00-29.00 -22.00-47.00l-334.00-277.00q-35.00-29.00 -59.50-20.50t-24.50,49.50l0.00,174.00 l-203.00,0.00  q-53.00,0.00 -100.00-31.50t-93.00-84.00t-91.50-120.00t-90.50-139.50q-55.00-88.00 -113.50-174.00t-126.00-154.50t-148.50-110.50t-179.00-42.00l-219.00,0.00 q-16.00,0.00 -27.50,11.50t-11.50,27.50zM0.00,1108.00l0.00,154.00 q0.00,39.00 39.00,38.00l 219.00,0.00 q 68.00,0.00 127.00-20.00t 111.50-56.00t 97.50-84.00t 88.00-104.00q-61.00-90.00 -117.00-178.00q-4.00-8.00 -9.00-14.00t-9.00-15.00 q-70.00,102.00 -139.50,172.00t-149.50,70.00l-219.00,0.00 q-16.00,0.00 -27.50,10.50t-11.50,26.50zM 778.00,481.00q 29.00,41.00 56.50,85.00t 56.50,87.00q 4.00,10.00 10.00,17.50t 10.00,17.50q 70.00-102.00 139.50-170.50t 149.50-68.50l 203.00,0.00 l0.00,190.00 q0.00,41.00 24.50,49.00t 59.50-20.00l 334.00-277.00q 23.00-18.00 22.00-47.00q0.00-27.00 -22.00-45.00l-334.00-279.00q-35.00-29.00 -59.50-20.50 t-24.50,49.50l0.00,168.00 l-203.00,0.00 q-68.00,0.00 -127.00,20.50t-110.50,56.50t-97.50,84.00t-87.00,103.00z" horiz-adv-x="1843" />
<glyph unicode="&#xf075;" d="M0.00,866.00q0.00,145.00 76.00,272.50t 206.00,222.50t 303.50,150.50t 372.50,55.50t 373.00-55.50t 304.00-150.50t 206.00-222.00t 76.00-273.00q0.00-145.00 -76.00-272.00t-206.00-222.50t-304.00-150.50t-373.00-55.00q-92.00,0.00 -180.00,12.00q-176.00-139.00 -411.00-192.00q-25.00-4.00 -50.50-8.50t-54.50-8.50q-16.00-2.00 -27.50,6.50t-15.50,24.50t 5.00,26.50t 20.00,20.50 q 23.00,23.00 43.00,44.50t 36.50,51.00t 30.00,69.50t 23.50,97.00q-174.00,98.00 -275.50,241.50t-101.50,315.50z" horiz-adv-x="1916" />
<glyph unicode="&#xf076;" d="M0.00,621.00l0.00,288.00 q0.00,16.00 11.50,27.50t 27.50,11.50l 391.00,0.00 q 16.00,0.00 28.50-11.00t 12.50-28.00l0.00-288.00 q0.00-29.00 22.50-60.00t 63.50-58.50t 98.50-45.00t 128.50-17.50q 70.00,0.00 128.50,17.50t 99.50,45.00t 63.50,58.50t 22.50,60.00l0.00,288.00 q0.00,39.00 39.00,39.00l 391.00,0.00 q 16.00,0.00 27.50-11.00t 11.50-28.00l0.00-288.00 q0.00-135.00 -61.50-254.00t-168.00-207.00t-249.00-139.50 t-304.50-51.50q-164.00,0.00 -306.00,51.50t-248.50,139.50t-168.00,206.50t-61.50,254.50zM0.00,1106.00l0.00,391.00 q0.00,16.00 11.50,27.50t 27.50,11.50l 391.00,0.00 q 16.00,0.00 28.50-11.50t 12.50-27.50l0.00-391.00 q0.00-16.00 -12.50-27.50t-28.50-11.50l-391.00,0.00 q-16.00,0.00 -27.50,11.50t-11.50,27.50zM 1098.00,1106.00l0.00,391.00 q0.00,16.00 11.00,27.50t 28.00,11.50l 391.00,0.00  q 16.00,0.00 27.50-11.50t 11.50-27.50l0.00-391.00 q0.00-16.00 -11.50-27.50t-27.50-11.50l-391.00,0.00 q-39.00,0.00 -39.00,39.00z" horiz-adv-x="1566" />
<glyph unicode="&#xf077;" d="M-1.00,355.50q-1.00,37.50 28.00,66.50l 673.00,674.00q 29.00,29.00 68.00,28.50t 68.00-28.50l 671.00-674.00q 29.00-29.00 29.00-67.00t-29.00-66.00l-100.00-103.00q-29.00-29.00 -68.00-28.50t-67.00,28.50l-508.00,510.00l-500.00-510.00q-29.00-29.00 -67.50-28.50t-67.50,28.50l-100.00,103.00q-29.00,29.00 -30.00,66.50z" horiz-adv-x="1536" />
</font>
</defs>
</svg>
